<?xml version="1.0" standalone="no"?>
<!DOCTYPE svg PUBLIC "-//W3C//DTD SVG 1.1//EN" "http://www.w3.org/Graphics/SVG/1.1/DTD/svg11.dtd" >
<svg>
<metadata>
Created by FontForge 20090914 at Fri Feb 24 12:31:30 2012
 By root
Copyright (c) 2008-2010 by Accademia di Belle Arti di Urbino and others. All rights reserved.
</metadata>
<defs>
<font id="TitilliumText25L-250wt" horiz-adv-x="530" >
  <font-face 
    font-family="TitilliumText25L"
    font-weight="300"
    font-stretch="normal"
    units-per-em="1000"
    panose-1="2 0 0 0 0 0 0 0 0 0"
    ascent="750"
    descent="-250"
    x-height="500"
    cap-height="697"
    bbox="-107 -278 1000 1081"
    underline-thickness="30"
    underline-position="-80"
    stemh="54"
    stemv="60"
    unicode-range="U+0020-U+2265"
  />
<missing-glyph horiz-adv-x="235" 
 />
    <glyph glyph-name=".notdef" horiz-adv-x="235" 
 />
    <glyph glyph-name=".null" horiz-adv-x="0" 
 />
    <glyph glyph-name="CR" horiz-adv-x="235" 
 />
    <glyph glyph-name="space" unicode=" " horiz-adv-x="235" 
 />
    <glyph glyph-name="b.001" horiz-adv-x="538" 
d="M308 509c136 0 170 -76 170 -248c0 -187 -42 -270 -228 -270c-68 0 -149 9 -149 9v730h35v-261s83 40 172 40zM249 23c167 0 192 77 192 236c0 150 -22 218 -133 218c-89 0 -172 -40 -172 -40v-408s78 -6 113 -6z" />
    <glyph glyph-name="C" unicode="C" horiz-adv-x="536" 
d="M490 68l3 -56s-109 -22 -188 -22c-207 0 -252 130 -252 356c0 229 44 361 252 361c93 0 189 -21 189 -21l-4 -57s-106 19 -180 19c-167 0 -193 -107 -193 -302c0 -192 27 -296 194 -296c66 0 179 18 179 18z" />
    <glyph glyph-name="B.001" horiz-adv-x="627" 
d="M103 700h240c134 0 202 -52 202 -170c0 -99 -40 -148 -97 -169c62 -17 124 -57 124 -165c0 -153 -84 -196 -210 -196h-259v700zM354 341h-215v-307h223c102 0 173 37 173 162c0 142 -130 145 -181 145zM343 666h-204v-292h215c109 0 154 54 154 156
c0 97 -53 136 -165 136z" />
    <glyph glyph-name="c" unicode="c" horiz-adv-x="437" 
d="M260 509c43 0 130 -12 130 -12l-2 -53s-80 9 -118 9c-120 0 -155 -51 -155 -194c0 -155 25 -213 155 -213c38 0 119 9 119 9l3 -53s-90 -12 -133 -12c-162 0 -205 72 -205 269c0 183 57 250 206 250z" />
    <glyph glyph-name="d" unicode="d" horiz-adv-x="541" 
d="M449 700v-700h-60v36s-79 -46 -160 -46c-84 0 -175 30 -175 256c0 174 52 263 209 263c44 0 107 -9 126 -12v203h60zM235 45c74 1 154 43 154 43v356c-20 2 -84 11 -124 11c-119 0 -151 -73 -151 -211c0 -175 63 -198 121 -199z" />
    <glyph glyph-name="e" unicode="e" horiz-adv-x="507" 
d="M254 45c73 0 183 9 183 9l2 -50s-113 -14 -191 -14c-149 1 -194 91 -194 258c0 193 84 261 206 261c129 0 197 -68 197 -236l-2 -48h-340c0 -118 34 -180 139 -180zM115 275h282c0 132 -43 181 -137 181c-91 0 -145 -51 -145 -181z" />
    <glyph glyph-name="f" unicode="f" horiz-adv-x="332" 
d="M155 445v-445h-59v445h-66v55h66v51c0 144 36 181 131 181c35 0 98 -6 98 -6l-1 -50s-59 2 -88 2c-60 0 -81 -25 -81 -128v-50h152v-55h-152z" />
    <glyph glyph-name="g" unicode="g" horiz-adv-x="512" 
d="M259 -237c-161 0 -209 38 -209 154c0 61 29 87 82 126c-18 11 -26 37 -26 68c0 17 32 78 32 78c-43 18 -81 57 -81 151c0 122 71 170 180 170c52 0 105 -13 105 -13l144 3v-53l-98 2c21 -21 35 -50 35 -109c0 -128 -61 -167 -189 -167c-9 0 -40 2 -51 4
c0 0 -20 -49 -20 -62c0 -43 8 -49 127 -49c136 0 188 -24 188 -145c0 -112 -75 -158 -219 -158zM286 13c-38 0 -113 4 -113 4c-48 -34 -63 -53 -63 -96c0 -78 27 -106 150 -106c109 0 156 30 156 104c0 85 -36 94 -130 94zM234 223c92 0 128 30 128 117
c0 97 -33 120 -125 120c-80 0 -120 -31 -120 -120c0 -79 28 -117 117 -117z" />
    <glyph glyph-name="h" unicode="h" horiz-adv-x="565" 
d="M152 0h-60v722h60v-248s85 35 162 35c137 0 167 -63 167 -249v-260h-60v259c0 146 -16 195 -114 195c-75 0 -155 -33 -155 -33v-421z" />
    <glyph glyph-name="i" unicode="i" horiz-adv-x="228" 
d="M84 0v500h60v-500h-60zM84 625v75h60v-75h-60z" />
    <glyph glyph-name="j" unicode="j" horiz-adv-x="242" 
d="M98 10v490h60v-491c0 -118 -32 -163 -164 -230l-25 51c106 59 129 87 129 180zM98 627v75h60v-75h-60z" />
    <glyph glyph-name="k" unicode="k" horiz-adv-x="492" 
d="M152 0h-60v722h60v-426l83 3l162 201h68l-176 -229l178 -271h-69l-162 240l-84 -3v-237z" />
    <glyph glyph-name="l" unicode="l" horiz-adv-x="236" 
d="M88 0v722h60v-722h-60z" />
    <glyph glyph-name="m" unicode="m" horiz-adv-x="868" 
d="M152 0h-60v500h60v-36s67 40 140 43c21 1 40 1 56 -1c39 -5 66 -19 84 -43c24 9 111 46 184 46c136 0 167 -61 167 -249v-260h-60v245c0 159 -13 209 -114 209c-75 0 -149 -39 -152 -41c10 -29 14 -87 14 -153v-260h-59v258c0 150 -16 196 -115 196
c-75 0 -145 -42 -145 -42v-412z" />
    <glyph glyph-name="A" unicode="A" horiz-adv-x="604" 
d="M31 0l200 697h145l197 -696h-62l-58 189h-304l-56 -190h-62zM276 640l-112 -391h275l-111 391h-52z" />
    <glyph glyph-name="p" unicode="p" horiz-adv-x="541" 
d="M92 -225v725h60v-38s78 47 158 47c125 0 178 -77 178 -253c0 -192 -62 -266 -216 -266c-50 0 -103 9 -120 13v-228h-60zM304 455c-73 0 -152 -45 -152 -45v-354c17 -3 70 -12 117 -12c117 0 157 59 157 214c0 145 -45 197 -122 197z" />
    <glyph glyph-name="q" unicode="q" horiz-adv-x="537" 
d="M246 -10c-143 0 -192 89 -192 250c0 180 53 269 228 269c50 0 163 -9 163 -9v-725h-60v247s-61 -32 -139 -32zM282 455c-133 0 -167 -70 -167 -213c0 -127 31 -198 131 -198c75 0 139 35 139 35v371s-70 5 -103 5z" />
    <glyph glyph-name="r" unicode="r" horiz-adv-x="355" 
d="M92 0v500h60v-71s81 62 183 81v-61c-95 -19 -183 -76 -183 -76v-373h-60z" />
    <glyph glyph-name="s" unicode="s" horiz-adv-x="486" 
d="M411 492l-2 -53s-108 16 -173 16c-63 0 -118 -17 -118 -85c0 -52 25 -68 130 -84c131 -21 180 -45 180 -141c0 -117 -73 -155 -193 -155c-61 0 -172 18 -172 18l4 53s112 -17 163 -17c87 0 137 20 137 98c0 60 -30 72 -137 89c-120 19 -173 41 -173 137
c0 109 89 141 176 141c76 0 178 -17 178 -17z" />
    <glyph glyph-name="u" unicode="u" horiz-adv-x="558" 
d="M406 500h59v-500h-59v35s-78 -45 -154 -45c-139 0 -167 61 -167 249v261h59v-259c0 -150 15 -197 115 -197c75 0 147 42 147 42v414z" />
    <glyph glyph-name="v.001" horiz-adv-x="480" 
d="M35 500h37l146 -468h43l147 468h37l-157 -500h-98z" />
    <glyph glyph-name="w" unicode="w" horiz-adv-x="758" 
d="M31 500h61l111 -446h14l130 436h64l129 -436h15l111 446h61l-126 -500h-105l-118 412l-118 -412h-104z" />
    <glyph glyph-name="x.001" horiz-adv-x="456" 
d="M207 250l-169 250h40l150 -223l150 223h40l-169 -250l169 -250h-41l-149 223l-149 -223h-41z" />
    <glyph glyph-name="y" unicode="y" horiz-adv-x="481" 
d="M28 500h61l133 -443h36l134 443h61l-216 -725h-60l66 225h-68z" />
    <glyph glyph-name="z" unicode="z" horiz-adv-x="480" 
d="M54 446v54h371v-54l-298 -392h298v-54h-371v54l299 392h-299z" />
    <glyph glyph-name="Z" unicode="Z" horiz-adv-x="570" 
d="M60 639v58h450v-85l-378 -534v-20h378v-59h-450v85l378 533v22h-378z" />
    <glyph glyph-name="zero" unicode="0" 
d="M264 670c153 0 237 -75 237 -352c0 -253 -89 -328 -236 -328c-148 0 -238 72 -238 328c0 277 88 352 237 352zM264 612c-115 0 -171 -59 -171 -295c0 -218 62 -268 172 -268s171 51 171 269c0 233 -54 294 -172 294z" />
    <glyph glyph-name="one" unicode="1" 
d="M74 522l207 138h59v-660h-61v590l-176 -117z" />
    <glyph glyph-name="two" unicode="2" 
d="M479 0h-421v57l205 213c78 81 133 139 133 221c0 89 -52 120 -153 120c-74 0 -173 -24 -173 -24l-6 57s96 26 189 26c136 0 207 -49 207 -174c0 -98 -46 -156 -133 -244l-186 -193h338v-59z" />
    <glyph glyph-name="three" unicode="3" 
d="M62 647c0 0 100 23 195 23c152 0 206 -53 206 -169c0 -111 -91 -141 -104 -149c70 -23 122 -54 122 -166c0 -131 -67 -196 -213 -196c-105 0 -218 23 -218 23l8 57s107 -21 205 -21c106 1 154 46 154 134c0 102 -66 129 -146 132h-134v57h133c52 0 129 43 129 124
c0 84 -41 115 -144 115c-93 0 -185 -19 -185 -19z" />
    <glyph glyph-name="five" unicode="5" 
d="M79 660h380v-59h-323l-18 -230s81 43 159 43c129 0 210 -52 210 -195c0 -152 -83 -227 -220 -227c-100 0 -215 26 -215 26l8 56s115 -24 205 -24c95 0 158 58 158 167c0 106 -64 139 -151 139c-82 0 -160 -45 -160 -45l-52 9z" />
    <glyph glyph-name="six.001" 
d="M452 651l-4 -33s-72 18 -156 18c-130 0 -208 -73 -208 -284c0 1 103 58 191 58c153 0 209 -80 209 -202c0 -135 -64 -217 -214 -217c-156 0 -224 120 -224 346c0 252 97 333 246 333c84 0 160 -19 160 -19zM273 376c-92 -3 -190 -59 -190 -59c3 -187 53 -292 187 -292
c131 0 176 64 176 183c0 99 -39 168 -173 168z" />
    <glyph glyph-name="seven" unicode="7" 
d="M56 601v59h407v-88l-260 -583l-58 19l254 570v23h-343z" />
    <glyph glyph-name="eight" unicode="8" 
d="M268 670c142 0 238 -53 238 -169c0 -86 -38 -124 -120 -155c76 -29 130 -69 130 -167c0 -147 -111 -189 -248 -189c-132 0 -246 42 -246 178c0 106 51 143 122 178c-72 32 -111 71 -111 156c0 114 91 168 235 168zM268 49c105 0 183 31 183 134c0 89 -59 113 -132 133
h-110c-75 -20 -120 -56 -120 -139c0 -96 79 -128 179 -128zM268 612c-105 0 -169 -29 -169 -116c0 -69 37 -102 110 -125h110c77 22 121 56 121 124c0 86 -65 117 -172 117z" />
    <glyph glyph-name="nine.001" 
d="M74 12l6 32s82 -19 166 -19c130 0 201 78 201 289c0 -1 -103 -58 -191 -58c-147 0 -209 81 -209 197c0 135 71 217 218 217c154 0 219 -120 219 -346c0 -252 -89 -333 -238 -333c-84 0 -172 21 -172 21zM258 290c92 3 190 59 190 59c-3 183 -56 287 -183 287
c-124 0 -180 -64 -180 -183c0 -91 47 -163 173 -163z" />
    <glyph glyph-name="D.001" horiz-adv-x="653" 
d="M389 0h-286v700h286c168 0 204 -220 204 -340c0 -104 -20 -360 -204 -360zM555 360c0 70 -26 306 -166 306h-250v-632h250c156 0 166 254 166 326z" />
    <glyph glyph-name="E" unicode="E" horiz-adv-x="567" 
d="M95 0v697h416v-58h-355v-255h295v-58h-295v-268h355v-58h-416z" />
    <glyph glyph-name="F" unicode="F" horiz-adv-x="557" 
d="M95 0v697h417v-58h-356v-287h296v-58h-296v-294h-61z" />
    <glyph glyph-name="G" unicode="G" horiz-adv-x="611" 
d="M355 295v57h189v-337s-142 -25 -223 -25c-209 0 -266 132 -266 357s55 360 265 360c105 0 224 -26 224 -26l-3 -56s-125 23 -216 23c-170 0 -206 -107 -206 -301c0 -193 36 -298 205 -298c64 0 154 16 159 16v230h-128z" />
    <glyph glyph-name="H" unicode="H" horiz-adv-x="689" 
d="M533 0v322h-377v-322h-61v697h61v-317h377v317h61v-697h-61z" />
    <glyph glyph-name="L.001" 
d="M480 0h-377v700h36v-666h341v-34z" />
    <glyph glyph-name="K" unicode="K" horiz-adv-x="596" 
d="M479 0l-202 314l-121 -2v-312h-61v697h61v-326l119 2l193 324h72l-210 -349l223 -348h-74z" />
    <glyph glyph-name="Q" unicode="Q" horiz-adv-x="653" 
d="M508 -143l-88 144c-27 -7 -58 -11 -94 -11c-215 0 -271 123 -271 355c0 229 57 362 271 362s272 -131 272 -362c0 -167 -27 -272 -117 -322l85 -138zM326 49c173 0 208 94 208 296c0 193 -39 303 -208 303c-170 0 -207 -109 -207 -303c0 -195 35 -296 207 -296z" />
    <glyph glyph-name="R" unicode="R" horiz-adv-x="626" 
d="M505 0l-137 273h-212v-273h-61v697h254c145 0 216 -61 216 -207c0 -109 -38 -178 -134 -203l143 -287h-69zM501 490c0 103 -48 149 -152 149h-193v-308h193c116 0 152 63 152 159z" />
    <glyph glyph-name="S" unicode="S" horiz-adv-x="534" 
d="M472 690l-5 -57s-138 17 -196 17c-104 0 -161 -36 -161 -122c0 -102 53 -118 176 -142c136 -27 201 -60 201 -184c0 -153 -81 -210 -219 -210c-76 0 -213 19 -213 19l6 57s135 -17 206 -17c104 0 157 41 157 148c0 87 -45 109 -161 130c-141 27 -216 57 -216 197
c0 130 86 183 224 183c77 0 201 -19 201 -19z" />
    <glyph glyph-name="T" unicode="T" horiz-adv-x="495" 
d="M-3 639v58h500v-58h-218v-639h-61v639h-221z" />
    <glyph glyph-name="V" unicode="V" horiz-adv-x="587" 
d="M493 697h63l-185 -697h-151l-189 697h63l174 -639h55z" />
    <glyph glyph-name="N" unicode="N" horiz-adv-x="690" 
d="M95 0v697h118l297 -628h24v628h62v-697h-117l-300 628h-23v-628h-61z" />
    <glyph glyph-name="DLE" horiz-adv-x="0" 
 />
    <glyph glyph-name="endash" unicode="&#x2013;" horiz-adv-x="500" 
d="M0 298h500v-56h-500v56z" />
    <glyph glyph-name="macron" unicode="&#xaf;" horiz-adv-x="228" 
d="M-21 637v53h282v-53h-282z" />
    <glyph glyph-name="dollar" unicode="$" 
d="M464 664l-5 -55s-68 9 -127 14l-33 -254c121 -26 180 -60 180 -175c0 -147 -78 -202 -211 -202h-17l-15 -115s-45 3 -45 7l14 111c-68 5 -142 16 -142 16l6 54s77 -10 143 -14l35 269c-126 25 -192 57 -192 186c0 125 83 176 216 176c7 0 15 0 23 -1l15 111h45l-15 -114
c63 -5 125 -14 125 -14zM116 508c0 -89 42 -110 139 -130l32 248h-16c-100 0 -155 -35 -155 -118zM418 192c0 75 -36 99 -126 119l-34 -262h9c100 0 151 40 151 143z" />
    <glyph glyph-name="percent.001" 
d="M135 702c71 0 106 -38 106 -134s-36 -138 -106 -138c-71 0 -106 42 -106 139c0 95 34 133 106 133zM416 272c71 0 106 -38 106 -134s-36 -138 -106 -138c-71 0 -106 42 -106 139c0 95 34 133 106 133zM186 6l144 695l36 -7l-144 -695zM64 569c0 -68 16 -107 71 -107
s71 38 71 106s-16 102 -71 102c-54 0 -71 -34 -71 -101zM345 139c0 -68 16 -107 71 -107s71 38 71 106s-16 102 -71 102c-54 0 -71 -34 -71 -101z" />
    <glyph glyph-name="exclam" unicode="!" 
d="M237 0v101h66v-101h-66zM240 225l-2 474h64l-2 -474h-60z" />
    <glyph glyph-name="asterisk.001" 
d="M434 519h-137l42 -129l-32 -10l-42 130l-110 -79l-19 27l110 80l-109 80l20 27l110 -81l42 129l32 -10l-42 -130h135v-34z" />
    <glyph glyph-name="parenleft.001" horiz-adv-x="260" 
d="M102 750h35s-95 -260 -95 -449c0 -186 95 -426 95 -426h-35s-97 226 -97 426s97 449 97 449z" />
    <glyph glyph-name="parenright.001" horiz-adv-x="260" 
d="M31 -120h-35s95 260 95 449c0 186 -95 426 -95 426h35s97 -226 97 -426s-97 -449 -97 -449z" />
    <glyph glyph-name="braceleft.001" horiz-adv-x="285" 
d="M139 169l-7 -116c0 -90 29 -140 143 -145l-2 -32c-128 5 -176 58 -176 177c0 39 7 98 7 123c0 65 -28 97 -104 118v32c77 19 104 55 104 120c0 28 -7 91 -7 128c0 119 48 172 176 177l2 -32c-114 -5 -143 -55 -143 -145c0 -33 7 -90 7 -119c0 -88 -27 -120 -100 -144
c73 -24 100 -58 100 -142z" />
    <glyph glyph-name="OE.001" horiz-adv-x="944" 
d="M328 -9c-216 0 -268 124 -268 356c0 228 54 362 268 362c33 0 121 -3 147 -9h409v-36h-373v-286h313v-36h-313v-306h373v-36h-407v-1c-26 -6 -116 -8 -149 -8zM328 25c33 0 120 3 147 9v629c-26 8 -114 12 -147 12c-190 0 -230 -119 -230 -328c0 -210 37 -322 230 -322z
M476 663h-1l1 -332v332z" />
    <glyph glyph-name="summation" unicode="&#x2211;" horiz-adv-x="833" 
 />
    <glyph glyph-name="daggerdbl.001" horiz-adv-x="833" 
d="M414 0v212h-185v32h185v233h-185v32h185v191h35v-191h185v-32h-185v-233h185v-32h-185v-212h-35z" />
    <glyph glyph-name="question.001" horiz-adv-x="386" 
d="M371 551c0 -163 -199 -211 -199 -323v-38h-35v41c0 124 199 178 199 320c0 96 -59 125 -165 125c-48 0 -161 -28 -161 -28l-5 34s112 27 166 27c127 0 200 -41 200 -158zM135 1v80h40v-80h-40z" />
    <glyph glyph-name="colon.001" horiz-adv-x="141" 
d="M25 344v80h40v-80h-40zM25 0v80h40v-80h-40z" />
    <glyph glyph-name="semicolon.001" horiz-adv-x="170" 
d="M-6 -123l41 210h42l-52 -210h-31zM32 344v80h40v-80h-40z" />
    <glyph glyph-name="bracketleft.001" horiz-adv-x="300" 
d="M231 749v-32h-147v-808h147v-32h-182l-1 872h183z" />
    <glyph glyph-name="bracketright.001" horiz-adv-x="300" 
d="M51 717v32h183l-1 -872h-182v32h147v808h-147z" />
    <glyph glyph-name="quotesingle.001" horiz-adv-x="100" 
d="M-18 460l-2 230h119l-5 -230h-112z" />
    <glyph glyph-name="quotedbl.001" horiz-adv-x="355" 
d="M35 460l-2 230h119l-5 -230h-112zM193 460l-2 230h119l-5 -230h-112z" />
    <glyph glyph-name="a" unicode="a" horiz-adv-x="520" 
d="M427 349v-266c3 -29 32 -40 65 -44l-3 -48c-49 0 -86 10 -113 40c0 0 -94 -41 -188 -41c-88 0 -137 51 -137 151c0 92 46 136 147 146l170 17v45c0 75 -34 105 -98 105c-72 0 -189 -14 -189 -14l-3 49s115 20 196 20c104 0 153 -52 153 -160zM368 257l-163 -17
c-67 -6 -92 -38 -92 -98c0 -64 28 -100 83 -100c79 0 172 34 172 34v181z" />
    <glyph glyph-name="o" unicode="o" horiz-adv-x="527" 
d="M265 509c145 0 208 -77 208 -252c0 -179 -41 -267 -208 -267c-168 0 -211 79 -211 268c0 177 56 251 211 251zM265 44c129 0 146 70 146 213s-44 198 -146 198c-115 0 -150 -48 -150 -197c0 -152 21 -214 150 -214z" />
    <glyph glyph-name="J" unicode="J" horiz-adv-x="306" 
d="M217 698c0 -212 1 -377 1 -591c0 -170 -57 -179 -184 -179v57c99 0 121 4 121 132v581h62z" />
    <glyph glyph-name="t" unicode="t" horiz-adv-x="366" 
d="M331 445h-167v-243c0 -125 8 -157 79 -157c28 0 93 7 93 7l3 -53s-66 -10 -101 -10c-98 0 -134 37 -134 181v275h-74v55h74v157h60v-157h167v-55z" />
    <glyph glyph-name="n" unicode="n" horiz-adv-x="570" 
d="M152 0h-60v500h60v-37s84 46 162 46c137 0 167 -63 167 -249v-260h-59v260c0 146 -16 195 -116 195c-78 0 -154 -42 -154 -42v-413z" />
    <glyph glyph-name="numbersign" unicode="#" 
d="M517 184h-114v-184h-56v184h-167v-184h-56v184h-114v52h114v196h-114v52h114v183h56v-183h167v183h56v-183h114v-52h-114v-196h114v-52zM347 236v196h-167v-196h167z" />
    <glyph glyph-name="W" unicode="W" horiz-adv-x="889" 
d="M40 697h62l133 -636h33l142 629h69l146 -629h32l130 636h62l-146 -697h-123l-136 604l-131 -604h-123z" />
    <glyph glyph-name="ampersand.001" horiz-adv-x="700" 
d="M303 694c109 0 153 -60 153 -145c0 -99 -50 -144 -165 -182l187 -185c14 40 24 88 31 146h35c-9 -69 -21 -126 -39 -172l140 -137l-24 -26l-131 130c-47 -94 -120 -132 -222 -132c-176 0 -230 83 -230 217c0 124 52 169 163 201c-47 51 -51 88 -51 141
c0 84 50 144 153 144zM270 24c90 0 154 37 194 124l-237 235c-113 -30 -154 -69 -154 -174c0 -119 52 -185 197 -185zM185 550c0 -41 6 -84 45 -123l36 -36c112 38 155 72 155 159c0 69 -32 112 -118 112c-77 0 -118 -38 -118 -112z" />
    <glyph glyph-name="sterling.001" horiz-adv-x="570" 
d="M463 668v-32s-87 12 -120 12c-68 0 -102 -27 -102 -147v-95h182v-32h-182v-340h174l82 16l7 -32l-81 -17l-309 -1v34h92v340h-69v32h69v95c0 146 47 179 137 179c38 0 120 -12 120 -12z" />
    <glyph glyph-name="Euro.001" horiz-adv-x="593" 
d="M68 427h64c13 159 66 250 246 250c95 0 175 -19 175 -19l-3 -35s-91 20 -172 20c-156 0 -198 -77 -208 -216l311 -1v-33h-313c-1 -20 -1 -41 -1 -62c0 -18 0 -36 1 -52l313 -1v-33h-312c10 -144 53 -220 209 -220c71 0 172 20 172 20l3 -34s-96 -20 -175 -20
c-178 0 -234 87 -246 254h-64v34h62c-1 16 -1 34 -1 52c0 21 0 42 1 62h-62v34z" />
    <glyph glyph-name="at" unicode="@" horiz-adv-x="985" 
d="M930 305v-17c0 -272 -68 -298 -171 -298c-57 0 -92 6 -112 58c-36 -19 -115 -57 -181 -57c-77 0 -174 24 -174 252c0 169 44 266 205 266c50 0 123 -26 123 -26v17h59v-200c0 -245 13 -255 80 -255c68 0 109 14 109 243v18c0 251 -100 359 -364 359
c-262 0 -388 -110 -388 -404c0 -310 120 -406 388 -406c40 0 143 10 143 10l3 -57s-98 -10 -146 -10c-296 0 -449 102 -449 463c0 333 158 460 449 460c302 0 426 -135 426 -416zM468 48c60 0 126 30 162 49c-8 42 -10 101 -10 188v145s-66 23 -115 23
c-125 0 -153 -71 -153 -213c0 -171 64 -192 116 -192z" />
    <glyph glyph-name="grave" unicode="`" horiz-adv-x="228" 
d="M25 743l208 -95l-20 -47l-210 89z" />
    <glyph glyph-name="acute" unicode="&#xb4;" horiz-adv-x="268" 
d="M30 648l208 95l23 -55l-210 -89z" />
    <glyph glyph-name="dieresis" unicode="&#xa8;" horiz-adv-x="228" 
d="M-8 630v79h59v-79h-59zM189 630v79h58v-79h-58z" />
    <glyph glyph-name="circumflex" unicode="&#x2c6;" horiz-adv-x="228" 
d="M-22 595l124 142h48l124 -142h-68l-79 90l-81 -90h-68z" />
    <glyph glyph-name="tilde" unicode="&#x2dc;" horiz-adv-x="228" 
d="M267 714l14 -47s-45 -48 -81 -48c-43 0 -116 51 -148 51c-23 0 -72 -44 -72 -44l-15 47s50 51 88 51c45 0 116 -50 147 -50c20 0 67 40 67 40z" />
    <glyph glyph-name="ring" unicode="&#x2da;" horiz-adv-x="228" 
d="M17 647c0 56 44 100 101 100c56 0 100 -44 100 -100c0 -57 -44 -101 -100 -101c-57 0 -101 44 -101 101zM64 647c0 -31 24 -56 54 -56s54 25 54 56c0 30 -24 55 -54 55s-54 -25 -54 -55z" />
    <glyph glyph-name="caron" unicode="&#x2c7;" horiz-adv-x="228" 
d="M103 595l-123 142h67l81 -89l80 89h68l-124 -142h-49z" />
    <glyph glyph-name="ydieresis" unicode="&#xff;" horiz-adv-x="481" 
d="M28 500h61l133 -443h36l134 443h61l-216 -725h-60l66 225h-68zM110 630v79h59v-79h-59zM307 630v79h58v-79h-58z" />
    <glyph glyph-name="scaron" unicode="&#x161;" horiz-adv-x="486" 
d="M411 492l-2 -53s-108 16 -173 16c-63 0 -118 -17 -118 -85c0 -52 25 -68 130 -84c131 -21 180 -45 180 -141c0 -117 -73 -155 -193 -155c-61 0 -172 18 -172 18l4 53s112 -17 163 -17c87 0 137 20 137 98c0 60 -30 72 -137 89c-120 19 -173 41 -173 137
c0 109 89 141 176 141c76 0 178 -17 178 -17zM226 595l-123 142h67l81 -89l80 89h68l-124 -142h-49z" />
    <glyph glyph-name="yacute" unicode="&#xfd;" horiz-adv-x="480" 
d="M22 500h61l133 -443h36l134 443h61l-216 -725h-60l66 225h-68zM147 648l208 95l23 -55l-210 -89z" />
    <glyph glyph-name="zcaron" unicode="&#x17e;" horiz-adv-x="480" 
d="M54 446v54h371v-54l-298 -392h298v-54h-371v54l299 392h-299zM205 595l-123 142h67l81 -89l80 89h68l-124 -142h-49z" />
    <glyph glyph-name="backslash.001" horiz-adv-x="833" 
d="M582 14l-35 -14l-301 687l35 14z" />
    <glyph glyph-name="underscore.001" horiz-adv-x="520" 
d="M27 -34h428v-34h-428v34z" />
    <glyph glyph-name="P.001" horiz-adv-x="615" 
d="M358 257h-219v-257h-36v700h255c139 0 207 -61 207 -211c0 -140 -49 -232 -207 -232zM139 291h219c129 0 169 85 169 198c0 123 -55 177 -169 177h-219v-375z" />
    <glyph glyph-name="M" unicode="M" horiz-adv-x="850" 
d="M95 0v697h112l218 -607l219 607h111v-697h-61v628h-14l-220 -605h-72l-218 605h-14v-628h-61z" />
    <glyph glyph-name="U" unicode="U" horiz-adv-x="641" 
d="M144 204c0 -114 67 -154 173 -154c112 0 180 39 180 154v493h61v-493c0 -155 -86 -213 -241 -213c-148 0 -235 58 -235 213v493h62v-493z" />
    <glyph glyph-name="X" unicode="X" horiz-adv-x="581" 
d="M104 697l187 -304l186 304h70l-213 -351l213 -346h-70l-185 301l-188 -301h-70l216 346l-216 351h70z" />
    <glyph glyph-name="Y" unicode="Y" horiz-adv-x="548" 
d="M306 299v-299h-62v299l-223 398h69l185 -329l182 329h69z" />
    <glyph glyph-name="degree" unicode="&#xb0;" 
d="M104 564c0 83 57 139 140 139s139 -56 139 -139s-56 -139 -139 -139s-140 56 -140 139zM149 564c0 -58 37 -96 95 -96s97 38 97 96s-39 97 -97 97s-95 -39 -95 -97z" />
    <glyph glyph-name="section" unicode="&#xa7;" 
d="M431 639l-3 -51s-107 13 -155 13c-87 0 -129 -30 -129 -98c0 -78 46 -92 145 -109c106 -19 162 -44 162 -143c0 -60 -35 -120 -42 -130c24 -19 37 -46 37 -97c0 -110 -63 -164 -184 -164c-63 0 -173 16 -173 16l6 51s109 -15 164 -15c83 0 129 35 129 109
c0 72 -47 81 -145 97c-112 19 -171 49 -171 147c0 63 49 118 57 124c-29 22 -44 53 -44 112c0 104 69 153 185 153c65 0 161 -15 161 -15zM267 343c-38 7 -72 13 -97 24c-2 -3 -38 -50 -38 -94c0 -66 40 -87 126 -101c44 -7 80 -15 106 -27c2 3 27 51 27 99
c0 71 -44 85 -124 99z" />
    <glyph glyph-name="copyright" unicode="&#xa9;" 
d="M10 434c0 148 108 266 255 266c149 0 256 -120 256 -266c0 -147 -107 -265 -257 -265c-146 0 -254 118 -254 265zM49 434c0 -125 91 -225 216 -225s216 100 216 225c0 124 -92 226 -216 226c-125 0 -216 -102 -216 -226zM339 338l1 -50s-39 -8 -74 -8
c-89 0 -115 57 -115 154c0 94 24 153 115 153c40 0 74 -6 74 -6l-1 -51s-37 7 -73 7c-58 0 -65 -40 -65 -103c0 -62 12 -103 65 -103c33 0 73 7 73 7z" />
    <glyph glyph-name="trademark" unicode="&#x2122;" 
d="M7 584v43h200v-43h-73v-252h-46v252h-81zM239 331v296h64l73 -221l76 221h63v-296h-44v237l-75 -224h-40l-72 224v-237h-45z" />
    <glyph glyph-name="divide.001" 
d="M3 334v36h336v-36h-336zM151 483v80h40v-80h-40zM151 139v80h40v-80h-40z" />
    <glyph glyph-name="registered" unicode="&#xae;" 
d="M5 434c0 148 106 270 260 270s262 -121 262 -270c0 -148 -109 -270 -262 -270c-154 0 -260 121 -260 270zM44 434c0 -127 94 -231 221 -231c126 0 221 104 221 231c0 128 -95 231 -221 231c-127 0 -221 -103 -221 -231zM328 276l-57 123h-66v-123h-48v315h100
c82 0 117 -25 117 -93c0 -48 -13 -79 -54 -93l60 -129h-52zM205 549v-108h67c38 0 55 13 55 55c0 40 -22 53 -69 53h-53z" />
    <glyph glyph-name="aacute" unicode="&#xe1;" horiz-adv-x="522" 
d="M422 349v-266c3 -29 32 -40 65 -44l-3 -48c-49 0 -86 10 -113 40c0 0 -94 -41 -188 -41c-88 0 -137 51 -137 151c0 92 46 136 147 146l170 17v45c0 75 -34 105 -98 105c-72 0 -189 -14 -189 -14l-3 49s115 20 196 20c104 0 153 -52 153 -160zM363 257l-163 -17
c-67 -6 -92 -38 -92 -98c0 -64 28 -100 83 -100c79 0 172 34 172 34v181zM126 648l208 95l23 -55l-210 -89z" />
    <glyph glyph-name="agrave" unicode="&#xe0;" horiz-adv-x="522" 
d="M422 349v-266c3 -29 32 -40 65 -44l-3 -48c-49 0 -86 10 -113 40c0 0 -94 -41 -188 -41c-88 0 -137 51 -137 151c0 92 46 136 147 146l170 17v45c0 75 -34 105 -98 105c-72 0 -189 -14 -189 -14l-3 49s115 20 196 20c104 0 153 -52 153 -160zM363 257l-163 -17
c-67 -6 -92 -38 -92 -98c0 -64 28 -100 83 -100c79 0 172 34 172 34v181zM147 743l208 -95l-20 -47l-210 89z" />
    <glyph glyph-name="acircumflex" unicode="&#xe2;" horiz-adv-x="522" 
d="M422 349v-266c3 -29 32 -40 65 -44l-3 -48c-49 0 -86 10 -113 40c0 0 -94 -41 -188 -41c-88 0 -137 51 -137 151c0 92 46 136 147 146l170 17v45c0 75 -34 105 -98 105c-72 0 -189 -14 -189 -14l-3 49s115 20 196 20c104 0 153 -52 153 -160zM363 257l-163 -17
c-67 -6 -92 -38 -92 -98c0 -64 28 -100 83 -100c79 0 172 34 172 34v181zM96 595l124 142h48l124 -142h-68l-79 90l-81 -90h-68z" />
    <glyph glyph-name="adieresis" unicode="&#xe4;" horiz-adv-x="522" 
d="M423 349v-261c2 -31 31 -41 64 -45l-3 -52c-54 0 -88 10 -112 38c0 0 -91 -39 -193 -39c-83 0 -133 53 -133 151c0 92 46 137 147 146l170 17v45c0 72 -34 103 -96 103c-73 0 -190 -15 -190 -15l-3 53s117 19 195 19c104 0 154 -50 154 -160zM363 254l-162 -15
c-68 -6 -93 -42 -93 -97c0 -64 29 -99 78 -99c85 0 177 34 177 34v177zM125 630v79h58v-79h-58zM321 630v79h58v-79h-58z" />
    <glyph glyph-name="atilde" unicode="&#xe3;" horiz-adv-x="522" 
d="M423 349v-261c2 -31 31 -41 64 -45l-3 -52c-54 0 -88 10 -112 38c0 0 -91 -39 -193 -39c-83 0 -133 53 -133 151c0 92 46 137 147 146l170 17v45c0 72 -34 103 -96 103c-73 0 -190 -15 -190 -15l-3 53s117 19 195 19c104 0 154 -50 154 -160zM363 254l-162 -15
c-68 -6 -93 -42 -93 -97c0 -64 29 -99 78 -99c85 0 177 34 177 34v177zM387 714l14 -47s-45 -48 -81 -48c-43 0 -116 51 -148 51c-23 0 -72 -44 -72 -44l-15 47s50 51 88 51c45 0 116 -50 147 -50c20 0 67 40 67 40z" />
    <glyph glyph-name="aring" unicode="&#xe5;" horiz-adv-x="522" 
d="M422 349v-266c3 -29 32 -40 65 -44l-3 -48c-49 0 -86 10 -113 40c0 0 -94 -41 -188 -41c-88 0 -137 51 -137 151c0 92 46 136 147 146l170 17v45c0 75 -34 105 -98 105c-72 0 -189 -14 -189 -14l-3 49s115 20 196 20c104 0 153 -52 153 -160zM363 257l-163 -17
c-67 -6 -92 -38 -92 -98c0 -64 28 -100 83 -100c79 0 172 34 172 34v181zM155 647c0 56 44 100 101 100c56 0 100 -44 100 -100c0 -57 -44 -101 -100 -101c-57 0 -101 44 -101 101zM202 647c0 -31 24 -56 54 -56s54 25 54 56c0 30 -24 55 -54 55s-54 -25 -54 -55z" />
    <glyph glyph-name="eacute" unicode="&#xe9;" horiz-adv-x="504" 
d="M253 45c73 0 183 9 183 9l2 -50s-113 -14 -191 -14c-149 1 -194 91 -194 258c0 193 84 261 206 261c129 0 197 -68 197 -236l-2 -48h-340c0 -118 34 -180 139 -180zM114 275h282c0 132 -43 181 -137 181c-91 0 -145 -51 -145 -181zM158 648l208 95l23 -55l-210 -89z" />
    <glyph glyph-name="egrave" unicode="&#xe8;" horiz-adv-x="504" 
d="M253 45c73 0 183 9 183 9l2 -50s-113 -14 -191 -14c-149 1 -194 91 -194 258c0 193 84 261 206 261c129 0 197 -68 197 -236l-2 -48h-340c0 -118 34 -180 139 -180zM114 275h282c0 132 -43 181 -137 181c-91 0 -145 -51 -145 -181zM140 739l208 -95l-20 -47l-210 89z" />
    <glyph glyph-name="ecircumflex" unicode="&#xea;" horiz-adv-x="504" 
d="M253 45c73 0 183 9 183 9l2 -50s-113 -14 -191 -14c-149 1 -194 91 -194 258c0 193 84 261 206 261c129 0 197 -68 197 -236l-2 -48h-340c0 -118 34 -180 139 -180zM114 275h282c0 132 -43 181 -137 181c-91 0 -145 -51 -145 -181zM116 595l124 142h48l124 -142h-68
l-79 90l-81 -90h-68z" />
    <glyph glyph-name="edieresis" unicode="&#xeb;" horiz-adv-x="504" 
d="M254 45c73 0 183 9 183 9l2 -50s-113 -14 -191 -14c-150 1 -195 91 -195 258c0 193 85 261 207 261c129 0 197 -68 197 -236l-3 -48h-339c0 -118 34 -180 139 -180zM114 275h282c0 132 -42 181 -136 181c-91 0 -145 -51 -146 -181zM130 630v79h58v-79h-58zM326 630v79h59
v-79h-59z" />
    <glyph glyph-name="idieresis" unicode="&#xef;" horiz-adv-x="261" 
d="M0 630v79h59v-79h-59zM197 630v79h58v-79h-58zM101 0v500h60v-500h-60z" />
    <glyph glyph-name="ntilde" unicode="&#xf1;" horiz-adv-x="573" 
d="M155 0h-60v500h60v-36s86 45 162 45c137 0 167 -63 167 -249v-260h-60v259c0 146 -16 195 -114 195c-75 0 -155 -42 -155 -42v-412zM440 714l14 -47s-45 -48 -81 -48c-43 0 -116 51 -148 51c-23 0 -72 -44 -72 -44l-15 47s50 51 88 51c45 0 116 -50 147 -50
c20 0 67 40 67 40z" />
    <glyph glyph-name="oacute" unicode="&#xf3;" horiz-adv-x="527" 
d="M265 509c145 0 208 -77 208 -252c0 -179 -41 -267 -208 -267c-168 0 -211 79 -211 268c0 177 56 251 211 251zM265 44c129 0 146 70 146 213s-44 198 -146 198c-115 0 -150 -48 -150 -197c0 -152 21 -214 150 -214zM158 648l208 95l23 -55l-210 -89z" />
    <glyph glyph-name="ograve" unicode="&#xf2;" horiz-adv-x="527" 
d="M265 509c145 0 208 -77 208 -252c0 -179 -41 -267 -208 -267c-168 0 -211 79 -211 268c0 177 56 251 211 251zM265 44c129 0 146 70 146 213s-44 198 -146 198c-115 0 -150 -48 -150 -197c0 -152 21 -214 150 -214zM167 743l208 -95l-20 -47l-210 89z" />
    <glyph glyph-name="ocircumflex" unicode="&#xf4;" horiz-adv-x="527" 
d="M265 509c145 0 208 -77 208 -252c0 -179 -41 -267 -208 -267c-168 0 -211 79 -211 268c0 177 56 251 211 251zM265 44c129 0 146 70 146 213s-44 198 -146 198c-115 0 -150 -48 -150 -197c0 -152 21 -214 150 -214zM114 595l124 142h48l124 -142h-68l-79 90l-81 -90h-68z
" />
    <glyph glyph-name="odieresis" unicode="&#xf6;" horiz-adv-x="527" 
d="M265 509c145 0 208 -77 208 -252c0 -179 -41 -267 -208 -267c-168 0 -211 79 -211 268c0 177 56 251 211 251zM265 44c129 0 146 70 146 213s-44 198 -146 198c-115 0 -150 -48 -150 -197c0 -152 21 -214 150 -214zM132 630v79h59v-79h-59zM329 630v79h58v-79h-58z" />
    <glyph glyph-name="otilde" unicode="&#xf5;" horiz-adv-x="527" 
d="M265 509c145 0 208 -77 208 -252c0 -179 -41 -267 -208 -267c-168 0 -211 79 -211 268c0 177 56 251 211 251zM265 44c129 0 146 70 146 213s-44 198 -146 198c-115 0 -150 -48 -150 -197c0 -152 21 -214 150 -214zM407 714l14 -47s-45 -48 -82 -48
c-43 0 -115 51 -147 51c-23 0 -73 -44 -73 -44l-14 47s50 51 88 51c45 0 116 -50 147 -50c20 0 67 40 67 40z" />
    <glyph glyph-name="uacute" unicode="&#xfa;" horiz-adv-x="558" 
d="M406 500h59v-500h-59v35s-78 -45 -154 -45c-139 0 -167 61 -167 249v261h59v-259c0 -150 15 -197 115 -197c75 0 147 42 147 42v414zM171 648l208 95l23 -55l-210 -89z" />
    <glyph glyph-name="ugrave" unicode="&#xf9;" horiz-adv-x="558" 
d="M156 742l208 -95l-23 -50l-209 91zM406 500h59v-500h-59v35s-78 -45 -154 -45c-139 0 -167 61 -167 249v261h59v-259c0 -150 15 -197 115 -197c75 0 147 42 147 42v414z" />
    <glyph glyph-name="ucircumflex" unicode="&#xfb;" horiz-adv-x="558" 
d="M406 500h59v-500h-59v35s-78 -45 -154 -45c-139 0 -167 61 -167 249v261h59v-259c0 -150 15 -197 115 -197c75 0 147 42 147 42v414zM121 595l124 142h48l124 -142h-68l-79 90l-81 -90h-68z" />
    <glyph glyph-name="udieresis" unicode="&#xfc;" horiz-adv-x="558" 
d="M406 500h59v-500h-59v35s-78 -45 -154 -45c-139 0 -167 61 -167 249v261h59v-259c0 -150 15 -197 115 -197c75 0 147 42 147 42v414zM157 630v79h58v-79h-58zM353 630v79h58v-79h-58z" />
    <glyph glyph-name="minus" unicode="&#x2212;" 
d="M28 276v56h471v-56h-471z" />
    <glyph glyph-name="multiply" unicode="&#xd7;" horiz-adv-x="757" 
d="M231 501l190 -199l191 199l42 -40l-193 -199l195 -202l-42 -39l-193 200l-193 -200l-41 39l194 202l-192 199z" />
    <glyph glyph-name="plus.001" horiz-adv-x="410" 
d="M-49 234v34h232v232h36v-232h234v-34h-234v-234h-36v234h-232z" />
    <glyph glyph-name="hyphen.001" horiz-adv-x="440" 
d="M60 264v34h320v-34h-320z" />
    <glyph glyph-name="less.001" 
d="M410 520l-315 -206l315 -217v-41s-313 213 -347 238v36l347 229v-39z" />
    <glyph glyph-name="equal.001" 
d="M1 343v34h505v-34h-505zM2 174v34h505v-34h-505z" />
    <glyph glyph-name="greater.001" 
d="M378 314l-315 206v39l347 -229v-36c-34 -25 -347 -238 -347 -238v41z" />
    <glyph glyph-name="slash.001" 
d="M46 12l277 690l33 -14l-277 -689z" />
    <glyph glyph-name="dotlessi" unicode="&#x131;" horiz-adv-x="261" 
d="M101 0v500h60v-500h-60z" />
    <glyph glyph-name="iacute" unicode="&#xed;" horiz-adv-x="261" 
d="M43 648l208 95l23 -55l-210 -89zM101 0v500h60v-500h-60z" />
    <glyph glyph-name="igrave" unicode="&#xec;" horiz-adv-x="261" 
d="M101 0v500h60v-500h-60zM35 743l208 -95l-20 -47l-210 89z" />
    <glyph glyph-name="icircumflex" unicode="&#xee;" horiz-adv-x="263" 
d="M101 0v500h60v-500h-60zM-19 595l124 142h48l124 -142h-68l-79 90l-81 -90h-68z" />
    <glyph glyph-name="Atilde" unicode="&#xc3;" horiz-adv-x="604" 
d="M31 0l200 697h145l197 -696h-62l-58 189h-304l-56 -190h-62zM276 640l-112 -391h275l-111 391h-52zM454 920l16 -46s-52 -57 -89 -57c-45 0 -129 59 -162 59c-22 0 -80 -51 -80 -51l-14 47s56 58 94 58c47 0 130 -58 161 -58c20 0 74 48 74 48z" />
    <glyph glyph-name="Agrave" unicode="&#xc0;" horiz-adv-x="604" 
d="M32 0l200 697h145l197 -696h-62l-58 189h-304l-56 -190h-62zM277 640l-112 -391h275l-111 391h-52zM195 930l208 -95l-21 -48l-210 88z" />
    <glyph glyph-name="Otilde" unicode="&#xd5;" horiz-adv-x="656" 
d="M328 49c173 0 207 94 207 296c0 193 -38 303 -207 303c-171 0 -208 -109 -208 -303c0 -195 35 -296 208 -296zM328 -10c-216 0 -272 123 -272 355c0 229 58 362 272 362s271 -131 271 -362c0 -239 -56 -355 -271 -355zM470 914l14 -47s-45 -48 -81 -48
c-43 0 -116 51 -148 51c-23 0 -72 -44 -72 -44l-15 47s50 51 88 51c45 0 116 -50 147 -50c20 0 67 40 67 40z" />
    <glyph glyph-name="oe.001" horiz-adv-x="876" 
d="M618 23c70 0 182 9 182 9l2 -32s-112 -9 -185 -9c-94 1 -144 38 -169 107c-24 -74 -77 -107 -183 -107c-166 0 -205 69 -205 270c0 185 57 248 205 248c96 0 157 -35 184 -120c33 89 101 120 182 120c123 0 190 -67 190 -240v-33h-355c0 -138 36 -213 152 -213zM265 23
c147 0 164 77 164 236c0 160 -53 218 -164 218c-128 0 -168 -48 -168 -216c0 -172 21 -238 168 -238zM466 268h318c0 153 -49 209 -153 209c-100 0 -165 -57 -165 -209z" />
    <glyph glyph-name="Acircumflex" unicode="&#xc2;" horiz-adv-x="604" 
d="M32 0l200 697h145l197 -696h-62l-58 189h-304l-56 -190h-62zM277 640l-112 -391h275l-111 391h-52zM153 795l124 142h48l124 -142h-68l-79 90l-81 -90h-68z" />
    <glyph glyph-name="Ecircumflex" unicode="&#xca;" horiz-adv-x="572" 
d="M96 0v697h416v-58h-355v-255h295v-58h-295v-268h355v-58h-416zM160 795l124 142h48l124 -142h-68l-79 90l-81 -90h-68z" />
    <glyph glyph-name="Aacute" unicode="&#xc1;" horiz-adv-x="604" 
d="M32 0l200 697h145l197 -696h-62l-58 189h-304l-56 -190h-62zM277 640l-112 -391h275l-111 391h-52zM194 848l208 95l23 -55l-210 -89z" />
    <glyph glyph-name="Edieresis" unicode="&#xcb;" horiz-adv-x="572" 
d="M96 0v697h416v-58h-355v-255h295v-58h-295v-268h355v-58h-416zM180 830v79h58v-79h-58zM376 830v79h59v-79h-59z" />
    <glyph glyph-name="Egrave" unicode="&#xc8;" horiz-adv-x="567" 
d="M95 0v697h416v-58h-355v-255h295v-58h-295v-268h355v-58h-416zM207 930l208 -95l-21 -48l-210 88z" />
    <glyph glyph-name="Ocircumflex" unicode="&#xd4;" horiz-adv-x="656" 
d="M327 49c173 0 208 94 208 296c0 193 -39 303 -208 303c-170 0 -207 -109 -207 -303c0 -195 35 -296 207 -296zM327 -10c-215 0 -271 123 -271 355c0 229 57 362 271 362s272 -131 272 -362c0 -239 -57 -355 -272 -355zM179 795l124 142h48l124 -142h-68l-79 90l-81 -90
h-68z" />
    <glyph glyph-name="Oacute" unicode="&#xd3;" horiz-adv-x="656" 
d="M327 49c173 0 208 94 208 296c0 193 -39 303 -208 303c-170 0 -207 -109 -207 -303c0 -195 35 -296 207 -296zM327 -10c-215 0 -271 123 -271 355c0 229 57 362 271 362s272 -131 272 -362c0 -239 -57 -355 -272 -355zM209 848l208 95l23 -55l-210 -89z" />
    <glyph glyph-name="Igrave" unicode="&#xcc;" horiz-adv-x="239" 
d="M89 0v697h61v-697h-61zM-1 930l208 -95l-21 -48l-210 88z" />
    <glyph glyph-name="Idieresis" unicode="&#xcf;" horiz-adv-x="239" 
d="M89 0v697h61v-697h-61zM-10 827v79h59v-79h-59zM193 827v79h58v-79h-58z" />
    <glyph glyph-name="Icircumflex" unicode="&#xce;" horiz-adv-x="239" 
d="M89 0v697h61v-697h-61zM-40 803l134 131h53l133 -131h-71l-88 83l-88 -83h-73z" />
    <glyph glyph-name="Iacute" unicode="&#xcd;" horiz-adv-x="239" 
d="M89 0v697h61v-697h-61zM14 838l208 95l23 -55l-210 -89z" />
    <glyph glyph-name="Ograve" unicode="&#xd2;" horiz-adv-x="656" 
d="M327 49c173 0 208 94 208 296c0 193 -39 303 -208 303c-170 0 -207 -109 -207 -303c0 -195 35 -296 207 -296zM327 -10c-215 0 -271 123 -271 355c0 229 57 362 271 362s272 -131 272 -362c0 -239 -57 -355 -272 -355zM229 930l208 -95l-21 -48l-210 88z" />
    <glyph glyph-name="Uacute" unicode="&#xda;" horiz-adv-x="642" 
d="M145 204c0 -114 67 -154 173 -154c112 0 180 39 180 154v493h61v-493c0 -155 -86 -213 -241 -213c-148 0 -235 58 -235 213v493h62v-493zM203 848l208 95l23 -55l-210 -89z" />
    <glyph glyph-name="Ucircumflex" unicode="&#xdb;" horiz-adv-x="642" 
d="M145 204c0 -114 67 -154 173 -154c112 0 180 39 180 154v493h61v-493c0 -155 -86 -213 -241 -213c-148 0 -235 58 -235 213v493h62v-493zM174 795l124 142h48l124 -142h-68l-79 90l-81 -90h-68z" />
    <glyph glyph-name="Ugrave" unicode="&#xd9;" horiz-adv-x="641" 
d="M144 204c0 -114 67 -154 173 -154c112 0 180 39 180 154v493h61v-493c0 -155 -86 -213 -241 -213c-148 0 -235 58 -235 213v493h62v-493zM183 930l208 -95l-21 -48l-210 88z" />
    <glyph glyph-name="cedilla" unicode="&#xb8;" horiz-adv-x="833" 
d="M561 -127c0 -59 -36 -84 -89 -84c-44 0 -84 6 -84 6l2 40s41 -3 71 -3c28 0 45 10 45 41c0 27 -17 37 -45 37h-47v91h38v-53c73 0 109 -14 109 -75z" />
    <glyph glyph-name="AE.001" horiz-adv-x="898" 
d="M429 0v215h-276l-78 -215h-40l251 700h552v-34h-373v-288h313v-34h-313v-310h373v-34h-409zM314 666l-149 -417h264v417h-115z" />
    <glyph glyph-name="Oslash.001" horiz-adv-x="656" 
d="M89 -98l60 129c-80 53 -103 160 -103 316c0 228 54 362 268 362c57 0 103 -10 140 -28l52 111l33 -14l-55 -116c75 -58 98 -166 98 -315c0 -242 -53 -356 -268 -356c-54 0 -98 8 -134 23l-58 -125zM84 347c0 -138 16 -233 81 -283l273 584c-32 18 -72 27 -124 27
c-190 0 -230 -119 -230 -328zM314 25c193 0 230 102 230 322c0 130 -17 226 -76 280l-273 -581c31 -14 70 -21 119 -21z" />
    <glyph glyph-name="germandbls" unicode="&#xdf;" horiz-adv-x="599" 
d="M153 0h-61v551c0 137 59 181 188 181c136 0 185 -41 185 -140c0 -64 -24 -109 -72 -129c-54 -22 -66 -28 -66 -49c0 -15 5 -23 86 -69c94 -53 132 -72 132 -123c0 -167 -45 -231 -238 -231c-33 0 -88 9 -88 9l4 51s67 -4 84 -4c153 0 175 51 175 170c0 18 -26 38 -114 85
c-91 48 -104 67 -104 109c0 47 28 65 84 89c49 21 54 50 54 89c0 65 -32 87 -122 87c-86 0 -127 -24 -127 -135v-541z" />
    <glyph glyph-name="Udieresis" unicode="&#xdc;" horiz-adv-x="642" 
d="M145 204c0 -114 67 -154 173 -154c112 0 180 39 180 154v493h62v-493c0 -155 -87 -213 -242 -213c-148 0 -234 58 -234 213v493h61v-493zM210 830v79h58v-79h-58zM406 830v79h59v-79h-59z" />
    <glyph glyph-name="Odieresis" unicode="&#xd6;" horiz-adv-x="656" 
d="M328 49c173 0 207 94 207 296c0 193 -38 303 -207 303c-171 0 -208 -109 -208 -303c0 -195 35 -296 208 -296zM328 -10c-216 0 -272 123 -272 355c0 229 58 362 272 362s271 -131 271 -362c0 -239 -56 -355 -271 -355zM197 830v79h59v-79h-59zM394 830v79h58v-79h-58z
" />
    <glyph glyph-name="Ntilde" unicode="&#xd1;" horiz-adv-x="687" 
d="M92 0v697h118l297 -628h24v628h62v-697h-116l-300 628h-24v-628h-61zM484 914l14 -47s-45 -48 -81 -48c-43 0 -116 51 -148 51c-23 0 -72 -44 -72 -44l-15 47s50 51 88 51c45 0 116 -50 147 -50c20 0 67 40 67 40z" />
    <glyph glyph-name="Eacute" unicode="&#xc9;" horiz-adv-x="572" 
d="M96 0v697h416v-58h-355v-255h295v-58h-295v-268h355v-58h-416zM204 848l208 95l23 -55l-210 -89z" />
    <glyph glyph-name="Ccedilla" unicode="&#xc7;" horiz-adv-x="537" 
d="M424 -127c0 -59 -36 -84 -89 -84c-44 0 -84 6 -84 6l2 40s41 -3 71 -3c28 0 45 10 45 41c0 27 -17 37 -45 37h-47v81c-183 11 -224 139 -224 355c0 229 44 361 252 361c93 0 189 -21 189 -21l-4 -57s-106 19 -180 19c-167 0 -193 -107 -193 -302c0 -192 27 -296 194 -296
c66 0 179 18 179 18l3 -56s-100 -20 -178 -22v-42c73 0 109 -14 109 -75z" />
    <glyph glyph-name="Aring" unicode="&#xc5;" horiz-adv-x="604" 
d="M412 750c0 -31 -11 -56 -30 -73l192 -676h-62l-58 189h-304l-56 -190h-62l193 673c-21 18 -33 43 -33 77c0 63 46 100 110 100s110 -37 110 -100zM277 640l-112 -391h275l-111 391h-52zM242 750c0 -29 15 -48 42 -53h36c26 5 42 24 42 53c0 35 -23 54 -60 54
s-60 -19 -60 -54z" />
    <glyph glyph-name="Adieresis" unicode="&#xc4;" horiz-adv-x="604" 
d="M32 0l200 697h145l197 -696h-62l-58 189h-304l-56 -190h-62zM277 640l-112 -391h275l-111 391h-52zM189 830v79h58v-79h-58zM385 830v79h58v-79h-58z" />
    <glyph glyph-name="ccedilla" unicode="&#xe7;" horiz-adv-x="437" 
d="M366 -127c0 -59 -36 -84 -89 -84c-44 0 -84 6 -84 6l2 40s41 -3 71 -3c28 0 45 10 45 41c0 27 -17 37 -45 37h-47v82c-129 11 -165 87 -165 267c0 183 57 250 206 250c43 0 130 -12 130 -12l-2 -53s-80 9 -118 9c-120 0 -155 -51 -155 -194c0 -155 25 -213 155 -213
c38 0 119 9 119 9l3 -53s-90 -12 -133 -12h-2v-42c73 0 109 -14 109 -75z" />
    <glyph glyph-name="Scaron" unicode="&#x160;" horiz-adv-x="534" 
d="M472 690l-5 -57s-138 17 -196 17c-104 0 -161 -36 -161 -122c0 -102 53 -118 176 -142c136 -27 201 -60 201 -184c0 -153 -81 -210 -219 -210c-76 0 -213 19 -213 19l6 57s135 -17 206 -17c104 0 157 41 157 148c0 87 -45 109 -161 130c-141 27 -216 57 -216 197
c0 130 86 183 224 183c77 0 201 -19 201 -19zM433 933l-133 -131h-53l-134 131h72l88 -84l88 84h72z" />
    <glyph glyph-name="lslash" unicode="&#x142;" horiz-adv-x="265" 
d="M102 0v294l-71 -50l-30 43l101 71v364h60v-322l77 54l30 -43l-107 -75v-336h-60z" />
    <glyph glyph-name="Lslash" unicode="&#x141;" horiz-adv-x="519" 
d="M474 0h-379v292l-70 -49l-31 42l101 71v341h61v-299l182 128l31 -42l-213 -150v-275h318v-59z" />
    <glyph glyph-name="eth" unicode="&#xf0;" 
d="M157 534l-28 39l92 64c-35 15 -75 29 -121 41l15 51c60 -15 113 -32 159 -54l100 70l28 -39l-81 -57c110 -66 168 -162 168 -296c0 -264 -65 -362 -225 -362c-138 0 -220 81 -220 228c0 126 81 209 208 209c76 0 174 -39 174 -39c-4 87 -48 164 -156 224zM255 373
c-93 0 -148 -65 -148 -154c0 -109 54 -172 157 -172c116 0 161 70 162 287c0 0 -99 39 -171 39z" />
    <glyph glyph-name="Eth" unicode="&#xd0;" horiz-adv-x="646" 
d="M23 313v58h72v326h251c192 0 248 -149 248 -338c0 -190 -55 -359 -248 -359h-251v313h-72zM530 359c0 148 -38 280 -184 280h-190v-268h157v-58h-157v-255h190c146 0 184 153 184 301z" />
    <glyph glyph-name="Yacute" unicode="&#xdd;" horiz-adv-x="540" 
d="M302 299v-299h-62v299l-223 398h69l185 -329l182 329h69zM147 848l208 95l23 -55l-210 -89z" />
    <glyph glyph-name="Thorn" unicode="&#xde;" horiz-adv-x="594" 
d="M336 185c108 0 153 69 153 178c0 110 -45 160 -153 160h-192v-338h192zM336 126h-192v-126h-61v697h61v-116h192c149 0 217 -69 217 -218c0 -148 -68 -237 -217 -237z" />
    <glyph glyph-name="thorn" unicode="&#xfe;" horiz-adv-x="538" 
d="M284 44c148 0 172 68 172 214c0 137 -25 196 -121 196c-75 0 -151 -32 -151 -32v-372s70 -6 100 -6zM340 509c136 0 178 -73 178 -250c0 -193 -50 -269 -234 -269c-34 0 -72 3 -100 5v-220h-60v947h60v-248s78 35 156 35z" />
    <glyph glyph-name="Zcaron" unicode="&#x17d;" horiz-adv-x="570" 
d="M60 639v58h450v-85l-378 -534v-20h378v-59h-450v85l378 533v22h-378zM445 933l-133 -131h-53l-134 131h72l88 -84l88 84h72z" />
    <glyph glyph-name="Ydieresis" unicode="&#x178;" horiz-adv-x="548" 
d="M306 299v-299h-62v299l-223 398h69l185 -329l182 329h69zM140 827v79h59v-79h-59zM343 827v79h58v-79h-58z" />
    <glyph glyph-name="oslash" unicode="&#xf8;" horiz-adv-x="527" 
d="M265 509c29 0 54 -4 77 -10l43 106l43 -15l-45 -108c62 -36 90 -109 90 -225c0 -179 -41 -267 -208 -267c-31 0 -57 3 -80 8l-45 -111l-43 15l46 111c-68 36 -89 114 -89 245c0 177 56 251 211 251zM265 455c-115 0 -150 -48 -150 -197c0 -100 9 -161 52 -191l154 380
c-16 5 -35 8 -56 8zM265 44c129 0 146 70 146 213c0 86 -16 141 -52 170l-154 -377c17 -4 37 -6 60 -6z" />
    <glyph glyph-name="ae.001" horiz-adv-x="828" 
d="M570 23c70 0 182 9 182 9l2 -32s-112 -9 -185 -9c-69 1 -114 21 -143 58l-38 -16s-93 -42 -206 -42c-82 0 -127 48 -127 146c0 95 40 128 138 144l190 20v52c0 87 -39 122 -111 122c-74 0 -188 -9 -188 -9l-2 33s110 10 190 10c78 0 123 -32 139 -96c36 71 98 96 172 96
c123 0 190 -67 190 -240v-33h-355c0 -138 36 -213 152 -213zM183 23c93 0 211 44 228 51c-22 43 -30 103 -30 176v18l-184 -18c-74 -7 -105 -41 -105 -113c0 -74 35 -114 91 -114zM418 268h318c0 153 -49 209 -153 209c-100 0 -165 -57 -165 -209z" />
    <glyph glyph-name="zero.pnum" 
d="M262 509c129 0 210 -56 210 -268c0 -195 -88 -250 -209 -250c-116 0 -209 55 -209 252c0 203 87 266 208 266zM263 456c-89 0 -152 -38 -152 -212c0 -161 63 -200 153 -200c94 0 150 39 150 198c0 176 -56 214 -151 214z" />
    <glyph glyph-name="one.pnum" 
d="M98 388l183 112h52v-500h-57v435l-154 -93z" />
    <glyph glyph-name="two.pnum" 
d="M457 0h-364v51l183 154c72 59 107 98 107 158c0 67 -37 92 -125 92c-52 0 -160 -18 -160 -19l-5 52s104 21 177 21c109 0 173 -42 173 -142c0 -82 -42 -126 -107 -178l-167 -136h288v-53z" />
    <glyph glyph-name="three.pnum" 
d="M107 492c0 0 101 18 177 18c110 0 176 -33 176 -126c0 -89 -80 -113 -89 -117c51 -16 104 -42 104 -128c0 -101 -72 -148 -184 -148c-83 0 -191 19 -191 19l7 52s103 -16 184 -16c82 1 126 29 126 95c0 76 -62 93 -123 96h-124v51h123c53 2 109 24 109 88
c0 61 -41 80 -117 80c-79 0 -172 -16 -172 -16z" />
    <glyph glyph-name="four.pnum" 
d="M339 -25v121h-283v46l164 358h60l-160 -350h219v139h58v-139h56v-54h-56v-121h-58z" />
    <glyph glyph-name="five.pnum" 
d="M120 502h335v-57h-283l-14 -164s74 34 140 34c108 0 177 -44 177 -151c0 -114 -69 -173 -181 -173c-79 0 -196 21 -196 21l7 53s117 -20 188 -20c74 0 121 36 121 117c0 74 -47 100 -121 100c-62 0 -148 -38 -148 -38l-43 10z" />
    <glyph glyph-name="six.pnum" 
d="M437 494l-5 -49s-82 12 -146 12c-89 0 -149 -42 -149 -181c0 1 89 40 149 40c118 0 179 -52 179 -159c0 -108 -72 -167 -195 -167c-122 0 -190 80 -190 264c0 190 84 255 206 255c71 0 151 -15 151 -15zM282 262c-63 -1 -145 -36 -145 -36c2 -123 45 -185 135 -185
c87 0 135 36 135 116c0 73 -37 105 -125 105z" />
    <glyph glyph-name="seven.pnum" 
d="M66 449v52h337v-73l-218 -437l-50 15l212 424v19h-281z" />
    <glyph glyph-name="eight.pnum" 
d="M259 509c116 0 191 -37 191 -130c0 -65 -35 -97 -95 -117c58 -20 104 -47 104 -128c0 -112 -81 -144 -200 -144c-116 0 -197 35 -197 138c0 84 43 110 98 134c-52 20 -89 51 -89 118c0 92 70 129 188 129zM259 41c86 0 142 17 142 96c0 69 -42 84 -100 99h-89
c-59 -15 -92 -39 -92 -105c0 -72 57 -90 139 -90zM259 458c-85 0 -130 -20 -130 -82c0 -54 27 -75 83 -92h89c60 15 92 37 92 92c0 61 -49 82 -134 82z" />
    <glyph glyph-name="nine.pnum" 
d="M88 8l4 49s82 -14 150 -14c90 0 147 46 147 183c0 0 -78 -37 -145 -37c-116 0 -176 56 -176 154c0 105 72 167 186 167c128 0 195 -84 195 -259c0 -193 -83 -260 -207 -260c-73 0 -154 17 -154 17zM248 240c66 3 141 37 141 37c-3 121 -43 181 -136 181
c-85 0 -128 -36 -128 -114c0 -67 39 -104 123 -104z" />
    <glyph glyph-name="brokenbar" unicode="&#xa6;" 
d="M227 750h60v-373h-60v373zM227 269h60v-372h-60v372z" />
    <glyph glyph-name="bar.001" 
d="M242 -59v759h35v-759h-35z" />
    <glyph glyph-name="cent.001" horiz-adv-x="437" 
d="M186 -86v127c-116 6 -174 48 -174 206c0 141 71 202 174 212v132h35v-130c39 -1 116 -11 116 -11l-2 -35s-75 9 -114 10v-348c39 0 116 8 116 8l2 -35s-79 -9 -118 -9v-127h-35zM52 247c0 -130 35 -164 134 -169v345c-88 -9 -134 -61 -134 -176z" />
    <glyph glyph-name="notequal.001" 
d="M61 340v34h247l72 163l35 -14l-66 -149h137v-34h-152l-66 -151h219v-34h-234l-72 -165l-35 14l66 151h-150v34h165l66 151h-232z" />
    <glyph glyph-name="plusminus" unicode="&#xb1;" 
d="M45 322v56h192v133h58v-133h197v-56h-197v-135h-58v135h-192zM46 123h446v-56h-446v56z" />
    <glyph glyph-name="pi" unicode="&#x3c0;" 
d="M357 154v290h-174l-28 -444h-60l28 444c-80 -2 -119 -13 -119 -13v56c57 11 150 13 150 13h216s95 0 144 16v-56s-32 -12 -97 -15v-291c0 -86 20 -102 92 -102v-55c-121 0 -152 33 -152 157z" />
    <glyph glyph-name="yen.001" horiz-adv-x="540" 
d="M47 331v34h171l-193 295h41l205 -309l202 309h42l-191 -295h168v-34h-190l-13 -20v-95h204v-34h-204v-182h-36v182h-205v34h205v95l-13 20h-193z" />
    <glyph glyph-name="mu.001" 
d="M90 -250v750h35v-258c0 -170 18 -219 129 -219c89 0 164 50 164 50v427h35v-500h-35v40s-78 -49 -164 -49c-66 0 -106 17 -129 51v-292h-35z" />
    <glyph glyph-name="florin.001" 
d="M289 352v-418c0 -134 -46 -179 -127 -179c-35 0 -92 3 -92 3l2 33s62 -3 90 -3c58 0 92 36 92 146v418h-69v32h69v111c0 124 46 178 127 178c35 0 93 -3 93 -3l-2 -32s-61 2 -91 2c-58 0 -92 -46 -92 -146v-110h162v-32h-162z" />
    <glyph glyph-name="comma.001" horiz-adv-x="170" 
d="M-6 -123l42 210h40l-51 -210h-31z" />
    <glyph glyph-name="period.001" horiz-adv-x="248" 
d="M98 0v80h40v-80h-40z" />
    <glyph glyph-name="quoteright.001" horiz-adv-x="170" 
d="M4 527l40 200h38l-48 -200h-30z" />
    <glyph glyph-name="bullet" unicode="&#x2022;" 
d="M141 107v288h248v-288h-248z" />
    <glyph glyph-name="paragraph.001" horiz-adv-x="833" 
d="M518 0v667h-172v-667h-36v350h-7c-103 0 -186 69 -186 174s83 176 186 176h348v-33h-97v-667h-36z" />
    <glyph glyph-name="ordfeminine" unicode="&#xaa;" horiz-adv-x="518" 
d="M346 571v-134c5 -16 16 -21 37 -23l-2 -28c-25 1 -38 7 -54 22c0 0 -63 -22 -119 -22c-41 0 -70 31 -70 80c0 48 24 72 75 76l102 7v23c0 44 -16 55 -52 55c-34 0 -104 -7 -104 -7l-2 31s69 8 106 8c57 0 83 -25 83 -88zM315 520l-97 -6c-34 -3 -47 -17 -47 -50
c0 -32 15 -46 40 -46c45 0 104 17 104 17v85z" />
    <glyph glyph-name="ordmasculine" unicode="&#xba;" horiz-adv-x="526" 
d="M259 659c76 0 113 -41 113 -135s-37 -138 -113 -138s-115 44 -115 138s39 135 115 135zM259 418c57 0 79 30 79 106s-22 103 -79 103s-81 -27 -81 -103s24 -106 81 -106z" />
    <glyph glyph-name="braceright.001" horiz-adv-x="285" 
d="M135 454l7 116c0 90 -29 140 -143 145l2 32c128 -5 176 -58 176 -177c0 -39 -7 -98 -7 -123c0 -65 28 -97 104 -118v-32c-77 -19 -104 -55 -104 -120c0 -28 7 -91 7 -128c0 -119 -48 -172 -176 -177l-2 32c114 5 143 55 143 145c0 33 -7 90 -7 119c0 88 27 120 100 144
c-73 24 -100 58 -100 142z" />
    <glyph glyph-name="quoteleft.001" horiz-adv-x="170" 
d="M56 727l-40 -200h-38l48 200h30z" />
    <glyph glyph-name="I" unicode="I" horiz-adv-x="239" 
d="M89 0v697h61v-697h-61z" />
    <glyph glyph-name="O" unicode="O" horiz-adv-x="653" 
d="M326 49c173 0 208 94 208 296c0 193 -39 303 -208 303c-170 0 -207 -109 -207 -303c0 -195 35 -296 207 -296zM326 -10c-215 0 -271 123 -271 355c0 229 57 362 271 362s272 -131 272 -362c0 -239 -57 -355 -272 -355z" />
    <glyph glyph-name="quotedblleft" unicode="&#x201c;" horiz-adv-x="325" 
d="M274 727l-42 -211h-63l50 211h55zM131 727l-42 -211h-63l50 211h55z" />
    <glyph glyph-name="asciitilde" unicode="~" 
d="M457 374l7 -59s-52 -52 -104 -52c-59 0 -142 52 -188 52c-40 0 -99 -50 -99 -50l-8 58s56 53 109 53c60 0 142 -51 187 -51c38 0 96 49 96 49z" />
    <glyph glyph-name="emdash" unicode="&#x2014;" horiz-adv-x="1000" 
d="M0 298h1000v-56h-1000v56z" />
    <glyph glyph-name="L" unicode="L" horiz-adv-x="519" 
d="M474 0h-379v697h61v-638h318v-59z" />
    <glyph glyph-name="B" unicode="B" horiz-adv-x="621" 
d="M95 697h246c132 0 204 -51 204 -171c0 -97 -35 -143 -91 -167c62 -20 115 -60 115 -163c0 -149 -84 -196 -213 -196h-261v697zM348 326h-192v-269h198c91 0 152 33 152 141c0 121 -106 128 -158 128zM339 640h-183v-258h192c95 0 134 48 134 138c0 86 -46 120 -143 120z
" />
    <glyph glyph-name="D" unicode="D" horiz-adv-x="646" 
d="M346 0h-251v697h251c192 0 248 -149 248 -338c0 -190 -55 -359 -248 -359zM530 359c0 148 -38 280 -184 280h-190v-581h190c146 0 184 153 184 301z" />
    <glyph glyph-name="P" unicode="P" horiz-adv-x="609" 
d="M348 242h-192v-242h-61v697h253c149 0 216 -69 216 -218s-67 -237 -216 -237zM156 301h192c108 0 153 68 153 178c0 109 -45 160 -153 160h-192v-338z" />
    <glyph glyph-name="b" unicode="b" horiz-adv-x="540" 
d="M308 509c136 0 178 -73 178 -250c0 -193 -50 -269 -233 -269c-63 0 -161 10 -161 10v722h60v-248s78 35 156 35zM252 44c148 0 172 68 172 214c0 137 -24 196 -120 196c-75 0 -152 -32 -152 -32v-372s70 -6 100 -6z" />
    <glyph glyph-name="v" unicode="v" horiz-adv-x="481" 
d="M28 500h63l130 -448h39l131 448h62l-148 -500h-131z" />
    <glyph glyph-name="x" unicode="x" horiz-adv-x="459" 
d="M31 500h66l132 -206l133 206h66l-161 -250l161 -250h-67l-132 205l-132 -205h-66l161 250z" />
    <glyph glyph-name="8.01" horiz-adv-x="0" 
d="M333 672c152 0 239 -51 239 -167c0 -89 -41 -111 -98 -157c53 -44 108 -66 108 -169c0 -149 -103 -191 -249 -191c-139 0 -246 45 -246 180c0 111 56 136 109 180c-57 46 -98 68 -98 158c0 114 81 166 235 166zM333 130c78 0 101 33 101 74c0 32 -11 55 -55 76h-88
c-44 -21 -56 -44 -56 -76c0 -41 20 -74 98 -74zM335 530c-70 0 -89 -20 -89 -60c0 -32 13 -36 45 -58h88c32 22 45 26 45 58c0 40 -18 60 -89 60z" />
    <glyph glyph-name="t.001" horiz-adv-x="358" 
d="M214 639v-140h123v-121h-123v-189c0 -50 0 -73 42 -73c28 0 76 2 76 2l6 -115s-67 -15 -102 -15c-121 0 -156 46 -156 190v200h-59v121h59v130z" />
    <glyph glyph-name="six" unicode="6" 
d="M466 657l-6 -57s-87 12 -171 12c-120 0 -188 -84 -189 -244c0 -1 98 42 176 42c144 0 220 -66 220 -202c0 -138 -81 -218 -229 -218c-161 0 -231 128 -231 344c0 239 99 336 253 336c84 0 177 -13 177 -13zM272 353c-83 -3 -173 -41 -173 -41c2 -151 47 -264 168 -264
c107 0 165 55 165 160c0 100 -61 145 -160 145z" />
    <glyph glyph-name="nine" unicode="9" 
d="M65 4l6 56s87 -12 171 -12c127 0 192 77 193 242c0 0 -105 -39 -183 -39c-137 0 -213 62 -213 200c0 136 89 219 225 219c165 0 235 -130 235 -344c0 -254 -96 -336 -257 -336c-84 0 -177 14 -177 14zM257 308c73 0 179 39 179 39c-3 156 -50 265 -172 265
c-99 0 -161 -62 -161 -161c0 -101 53 -143 154 -143z" />
    <glyph glyph-name="hyphen.002" horiz-adv-x="440" 
d="M60 225v112h320v-112h-320z" />
    <glyph glyph-name="period.002" horiz-adv-x="248" 
d="M45 0v142h132v-142h-132z" />
    <glyph glyph-name="yen" unicode="&#xa5;" horiz-adv-x="540" 
d="M47 321v53h151l-181 286h69l185 -285l182 285h70l-179 -286h148v-53h-180l-10 -20v-75h191v-54h-191v-172h-62v172h-192v54h192v75l-9 20h-184z" />
    <glyph glyph-name="less" unicode="&#x3c;" 
d="M410 495l-290 -182l290 -191v-66c-29 15 -293 190 -347 224v62l347 217v-64z" />
    <glyph glyph-name="equal.002" 
d="M1 313v132h505v-132h-505zM1 106v132h506v-132h-506z" />
    <glyph glyph-name="greater" unicode="&#x3e;" 
d="M353 313l-290 182v64l347 -217v-62c-55 -34 -318 -209 -347 -224v66z" />
    <glyph glyph-name="bracketleft" unicode="[" horiz-adv-x="300" 
d="M243 749v-57h-139v-758h139v-57h-199v872h199z" />
    <glyph glyph-name="backslash" unicode="\" horiz-adv-x="534" 
d="M449 17l-63 -26l-306 690l64 27z" />
    <glyph glyph-name="bracketright" unicode="]" horiz-adv-x="300" 
d="M44 692v57h199v-872h-199v57h139v758h-139z" />
    <glyph glyph-name="underscore.002" horiz-adv-x="520" 
d="M27 15h428v-132h-428v132z" />
    <glyph glyph-name="braceleft.002" horiz-adv-x="339" 
d="M253 171c0 -29 -7 -73 -7 -106c0 -50 7 -72 71 -77v-112c-148 5 -196 60 -196 179c0 39 7 98 7 123c0 35 -28 67 -104 88v92c77 19 104 55 104 90c0 28 -7 91 -7 128c0 119 48 170 196 175v-112c-64 -5 -71 -23 -71 -73c0 -33 7 -80 7 -109c0 -90 -27 -120 -100 -144
c73 -24 100 -52 100 -142z" />
    <glyph glyph-name="bar" unicode="|" 
d="M229 -102v814h61v-814h-61z" />
    <glyph glyph-name="braceright.002" horiz-adv-x="285" 
d="M-43 452c0 29 7 73 7 106c0 50 -7 72 -71 77v112c148 -5 196 -60 196 -179c0 -39 -7 -98 -7 -123c0 -35 28 -67 104 -88v-92c-77 -19 -104 -55 -104 -90c0 -28 7 -91 7 -128c0 -119 -48 -170 -196 -175v112c64 5 71 23 71 73c0 33 -7 80 -7 109c0 90 27 120 100 144
c-73 24 -100 52 -100 142z" />
    <glyph glyph-name="notequal" unicode="&#x2260;" 
d="M51 338v56h247l70 159l53 -21l-61 -138h128v-56h-152l-60 -137h213v-56h-238l-69 -159l-54 21l61 138h-137v56h161l60 137h-222z" />
    <glyph glyph-name="AE" unicode="&#xc6;" horiz-adv-x="898" 
d="M429 0v190h-261l-65 -190h-65l234 697h573v-58h-355v-252h295v-58h-295v-271h355v-58h-416zM318 639l-132 -390h243v390h-111z" />
    <glyph glyph-name="mu" unicode="&#xb5;" 
d="M81 -243v743h60v-266c0 -145 16 -190 114 -190c75 0 147 42 147 42v414h60v-500h-60v35s-78 -45 -154 -45c-53 0 -87 13 -107 39v-272h-60z" />
    <glyph glyph-name="mu" unicode="&#x3bc;" 
d="M81 -243v743h60v-266c0 -145 16 -190 114 -190c75 0 147 42 147 42v414h60v-500h-60v35s-78 -45 -154 -45c-53 0 -87 13 -107 39v-272h-60z" />
    <glyph glyph-name="ae" unicode="&#xe6;" horiz-adv-x="828" 
d="M570 45c73 0 182 9 182 9l2 -50s-112 -14 -190 -14c-69 0 -116 20 -146 56l-34 -15c-9 -4 -94 -41 -197 -41c-87 0 -133 52 -133 151c0 112 56 136 182 150l135 13v45c0 73 -35 103 -96 103c-74 0 -190 -10 -190 -10l-2 54s116 13 194 13c72 0 117 -26 136 -81
c36 59 94 81 163 81c129 0 197 -68 197 -236l-3 -48h-340c1 -118 35 -180 140 -180zM194 43c80 0 185 37 198 42c-18 43 -23 99 -23 169l-161 -15c-64 -6 -92 -34 -92 -97c0 -65 29 -99 78 -99zM430 275h282c0 132 -43 181 -136 181c-92 0 -146 -52 -146 -181z" />
    <glyph glyph-name="florin" unicode="&#x192;" 
d="M303 -66c0 -136 -52 -179 -141 -179c-35 0 -92 5 -92 5l1 51c1 0 63 -3 91 -3c50 0 82 31 82 126v424h-66v55h66v61c0 132 24 191 103 204c12 3 25 4 39 3c35 -1 87 -4 87 -4l-1 -52s-57 2 -88 2c-52 0 -81 -39 -81 -126v-88h152v-55h-152v-424z" />
    <glyph glyph-name="OE" unicode="&#x152;" horiz-adv-x="944" 
d="M882 -1h-408c-41 -4 -111 -9 -148 -9c-215 0 -266 122 -266 355c0 237 57 362 266 362c37 0 110 -4 147 -10h409v-60h-348v-250h288v-60h-288v-267h348v-61zM332 50c22 0 106 5 141 8v579c-35 3 -117 11 -142 11c-169 0 -207 -100 -207 -302c0 -200 34 -296 208 -296z
" />
    <glyph glyph-name="oe" unicode="&#x153;" horiz-adv-x="876" 
d="M618 45c73 0 183 9 183 9l2 -50s-113 -14 -191 -14c-88 0 -138 33 -165 92c-27 -63 -79 -92 -176 -92c-168 0 -212 79 -212 268c0 177 57 251 212 251c90 0 149 -31 178 -103c34 76 98 103 175 103c129 0 197 -68 197 -236l-3 -48h-339c0 -118 34 -180 139 -180zM271 44
c128 0 146 70 146 213s-45 198 -146 198c-115 0 -150 -48 -150 -197c0 -152 21 -214 150 -214zM478 275h282c0 132 -42 181 -136 181c-91 0 -146 -52 -146 -181z" />
    <glyph glyph-name="daggerdbl" unicode="&#x2021;" 
d="M235 -77v194h-174v57h174v265h-174v59h174v194h59v-194h174v-59h-174v-265h174v-57h-174v-194h-59z" />
    <glyph glyph-name="four" unicode="4" 
d="M361 -3v133h-331v51l195 479h67l-191 -471h260v214h62v-214h88v-59h-88v-133h-62z" />
    <glyph glyph-name="quotedbl" unicode="&#x22;" horiz-adv-x="299" 
d="M251 486h-57l-1 212h59zM103 486h-57v212h58z" />
    <glyph glyph-name="quotesingle" unicode="'" horiz-adv-x="100" 
d="M19 476l-2 220h63l-5 -220h-56z" />
    <glyph glyph-name="parenleft" unicode="(" horiz-adv-x="260" 
d="M140 750h63s-95 -260 -95 -449c0 -186 95 -426 95 -426h-63s-97 226 -97 426s97 449 97 449z" />
    <glyph glyph-name="parenright" unicode=")" horiz-adv-x="260" 
d="M43 750h63s97 -239 97 -439s-97 -436 -97 -436h-63s95 250 95 436c0 189 -95 439 -95 439z" />
    <glyph glyph-name="plus.002" horiz-adv-x="410" 
d="M-49 190v122h189v188h122v-188h191v-122h-191v-190h-122v190h-189z" />
    <glyph glyph-name="comma" unicode="," horiz-adv-x="170" 
d="M34 -123l44 222h66l-53 -222h-57z" />
    <glyph glyph-name="hyphen" unicode="-" horiz-adv-x="440" 
d="M62 252v58h315v-58h-315z" />
    <glyph glyph-name="period" unicode="." horiz-adv-x="248" 
d="M85 0v101h66v-101h-66z" />
    <glyph glyph-name="colon" unicode=":" horiz-adv-x="163" 
d="M66 330v102h66v-102h-66zM66 0v101h66v-101h-66z" />
    <glyph glyph-name="semicolon" unicode=";" horiz-adv-x="188" 
d="M29 -121l46 225h67l-59 -225h-54zM70 330v102h66v-102h-66z" />
    <glyph glyph-name="equal" unicode="=" 
d="M36 340v56h452v-56h-452zM37 159v56h452v-56h-452z" />
    <glyph glyph-name="question" unicode="?" horiz-adv-x="386" 
d="M382 542c0 -168 -193 -208 -193 -309v-38h-63v41c0 127 193 168 193 302c0 84 -46 112 -145 112c-48 0 -158 -26 -158 -26l-7 59s113 27 167 27c134 0 206 -43 206 -168zM125 1v101h66v-101h-66z" />
    <glyph glyph-name="underscore" unicode="_" horiz-adv-x="520" 
d="M27 -22h428v-56h-428v56z" />
    <glyph glyph-name="braceleft" unicode="{" horiz-adv-x="298" 
d="M170 170c-2 -37 -7 -79 -7 -117c0 -76 24 -118 125 -123l-2 -57c-133 5 -186 57 -186 176c0 39 7 98 7 123c0 59 -25 91 -101 113v52c77 19 101 52 101 112c0 28 -7 91 -7 128c0 121 53 171 186 176l2 -57c-101 -5 -125 -44 -125 -122c0 -33 7 -92 7 -121
c0 -86 -27 -117 -100 -141c73 -24 100 -59 100 -142z" />
    <glyph glyph-name="braceright" unicode="}" horiz-adv-x="298" 
d="M124 170c0 83 27 118 100 142c-73 24 -100 55 -100 141c0 29 7 88 7 121c0 78 -24 117 -125 122l1 57c133 -5 186 -55 186 -176c0 -37 -7 -100 -7 -128c0 -60 25 -93 102 -112v-52c-76 -22 -102 -54 -102 -113c0 -25 7 -84 7 -123c0 -119 -53 -171 -186 -176l-1 57
c101 5 125 47 125 123c0 38 -6 80 -7 117z" />
    <glyph glyph-name="cent" unicode="&#xa2;" horiz-adv-x="437" 
d="M224 -83v121c-121 5 -177 51 -177 210c0 148 64 210 176 215v123h54v-125c44 -2 107 -10 107 -10l-3 -55s-95 8 -133 8c-102 0 -137 -42 -137 -156c0 -117 31 -151 145 -151c38 0 127 7 127 7l2 -55s-65 -8 -107 -10v-122h-54z" />
    <glyph glyph-name="quoteleft" unicode="&#x2018;" horiz-adv-x="170" 
d="M127 727l-42 -211h-63l51 211h54z" />
    <glyph glyph-name="quoteright" unicode="&#x2019;" horiz-adv-x="170" 
d="M42 527l42 211h63l-51 -211h-54z" />
    <glyph glyph-name="divide" unicode="&#xf7;" 
d="M75 351v60h285v-60h-285zM138 419v91h157v-91h-157zM186 116v93h63v-93h-63z" />
    <glyph glyph-name="Euro" unicode="&#x20ac;" horiz-adv-x="546" 
d="M21 436h63c14 158 71 240 245 240c92 0 176 -19 176 -19l-3 -57s-94 16 -168 16c-135 0 -175 -61 -186 -181h286v-51h-290v-101l290 -1v-51h-286c11 -121 51 -181 187 -181c66 0 167 16 167 16l3 -57s-97 -19 -176 -19c-175 0 -232 81 -245 241h-63v52h59v101h-59v52z
" />
    <glyph glyph-name="Oslash" unicode="&#xd8;" horiz-adv-x="653" 
d="M326 -10c-50 0 -90 7 -124 19l-58 -124l-50 23l59 127c-75 55 -98 160 -98 310c0 229 57 362 271 362c52 0 96 -8 131 -24l53 114l51 -21l-57 -121c71 -59 94 -165 94 -310c0 -239 -57 -355 -272 -355zM119 345c0 -119 13 -203 62 -251l250 533c-28 14 -62 21 -105 21
c-170 0 -207 -109 -207 -303zM326 49c173 0 208 94 208 296c0 113 -14 198 -59 248l-247 -528c26 -11 58 -16 98 -16z" />
    <glyph glyph-name="ampersand" unicode="&#x26;" horiz-adv-x="700" 
d="M323 699c115 0 166 -60 166 -153c0 -96 -47 -142 -157 -188l160 -159c11 36 23 89 29 139l59 -1c-9 -67 -24 -132 -42 -178l133 -129l-38 -42l-124 120c-54 -85 -122 -121 -225 -121c-168 0 -233 82 -233 218c0 118 55 167 157 202c-45 52 -51 86 -51 143
c0 89 58 149 166 149zM286 44c81 0 136 30 178 104l-216 217c-96 -29 -136 -69 -136 -159c0 -104 51 -162 174 -162zM217 545c0 -41 8 -80 45 -117l31 -31c97 38 135 70 135 146c0 64 -30 100 -105 100c-68 0 -106 -32 -106 -98z" />
    <glyph glyph-name="asterisk" unicode="*" 
d="M439 514h-134l41 -127l-42 -13l-42 128l-108 -79l-26 35l109 79l-107 79l26 36l107 -78l42 126l43 -14l-41 -128h132v-44z" />
    <glyph glyph-name="sterling" unicode="&#xa3;" 
d="M445 667v-52s-84 11 -122 11c-71 0 -90 -31 -90 -154v-59h175v-53h-175v-306h162l78 16l11 -52l-82 -18h-316v54h88v306h-68v53h68v64c0 166 49 203 148 203c43 0 123 -13 123 -13z" />
    <glyph glyph-name="paragraph" unicode="&#xb6;" 
d="M386 0v649h-130v-649h-55v339h-7c-106 0 -186 72 -186 179c0 108 81 182 186 182h329v-51h-82v-649h-55z" />
    <glyph glyph-name="dagger" unicode="&#x2020;" 
d="M61 439v59h174v194h59v-194h174v-59h-174v-516h-59v516h-174z" />
    <glyph glyph-name="percent" unicode="%" 
d="M413 277c75 0 111 -43 111 -137c0 -93 -37 -140 -111 -140c-75 0 -111 47 -111 141c0 93 35 136 111 136zM145 19l214 680l43 -17l-213 -680zM353 141c0 -62 13 -97 60 -97s60 34 60 96c0 63 -13 93 -60 93c-46 0 -60 -30 -60 -92zM133 702c75 0 110 -43 110 -137
s-36 -140 -110 -140c-75 0 -111 46 -111 141c0 93 35 136 111 136zM73 566c0 -63 13 -97 60 -97s60 33 60 96c0 62 -13 93 -60 93s-60 -31 -60 -92z" />
    <glyph glyph-name="plus" unicode="+" horiz-adv-x="440" 
d="M-33 233v56h221v221h58v-221h223v-56h-223v-223h-58v223h-221z" />
    <glyph glyph-name="asciicircum" unicode="^" 
d="M407 328l-146 272l-140 -272h-65l173 332h63l181 -332h-66z" />
    <glyph glyph-name="quotedblright" unicode="&#x201d;" horiz-adv-x="351" 
d="M63 514l42 211h63l-50 -211h-55zM215 514l42 211h63l-50 -211h-55z" />
    <glyph glyph-name="zerosuperior" unicode="&#x2070;" horiz-adv-x="265" 
d="M134 799c74 0 117 -41 117 -165c0 -126 -46 -166 -116 -166c-71 0 -117 40 -117 167c0 124 44 164 116 164zM134 750c-42 0 -61 -30 -61 -116c0 -90 22 -116 62 -116c39 0 61 26 61 117c0 83 -19 115 -62 115z" />
    <glyph glyph-name="onesuperior" unicode="&#xb9;" horiz-adv-x="265" 
d="M33 721l101 69h51v-312h-54v253l-73 -50z" />
    <glyph glyph-name="twosuperior" unicode="&#xb2;" horiz-adv-x="265" 
d="M228 478h-204v48l92 93c30 30 52 54 52 88c0 30 -22 41 -52 41c-31 0 -86 -10 -86 -10l-3 49s57 12 99 12c66 0 97 -28 97 -88c0 -47 -23 -78 -63 -116l-66 -68h134v-49z" />
    <glyph glyph-name="threesuperior" unicode="&#xb3;" horiz-adv-x="265" 
d="M31 789c0 0 56 10 100 10c69 0 102 -25 102 -82c0 -53 -38 -73 -43 -76c32 -10 52 -23 52 -77c0 -66 -39 -96 -105 -96c-49 0 -110 11 -110 11l3 47s56 -8 102 -8c38 0 54 19 54 47c0 38 -21 49 -51 49h-65v47h64c20 0 44 22 44 51c0 25 -14 38 -51 38
c-43 0 -93 -8 -93 -8z" />
    <glyph glyph-name="foursuperior" unicode="&#x2074;" horiz-adv-x="265" 
d="M158 478v51h-142v46l76 215h58l-78 -211h86l4 87h50v-87h30v-50h-30v-51h-54z" />
    <glyph glyph-name="fivesuperior" unicode="&#x2075;" horiz-adv-x="265" 
d="M47 790h182v-49h-136l-6 -83s23 18 60 18c53 0 95 -24 95 -99c0 -72 -44 -108 -105 -108c-47 0 -104 13 -104 13l4 47s54 -11 95 -11c31 0 53 19 53 58c0 40 -21 52 -46 52c-32 0 -59 -18 -59 -18l-43 5z" />
    <glyph glyph-name="sixsuperior" unicode="&#x2076;" horiz-adv-x="265" 
d="M231 790l-3 -46s-46 7 -82 7c-45 0 -67 -24 -67 -85c0 -1 35 16 64 16c70 0 102 -37 102 -102c0 -69 -42 -112 -108 -112c-76 0 -115 52 -115 164c0 120 41 167 123 167c37 0 86 -9 86 -9zM137 635c-30 0 -59 -18 -59 -19c1 -62 16 -99 58 -99c40 0 54 27 54 62
c0 41 -15 56 -53 56z" />
    <glyph glyph-name="sevensuperior" unicode="&#x2077;" horiz-adv-x="265" 
d="M28 738v52h202v-71l-108 -250l-57 11l105 236v22h-142z" />
    <glyph glyph-name="eightsuperior" unicode="&#x2078;" horiz-adv-x="265" 
d="M132 799c73 0 112 -26 112 -84c0 -43 -16 -64 -48 -74c30 -9 53 -27 53 -76c0 -75 -47 -97 -117 -97c-68 0 -117 23 -117 93c0 51 25 69 54 81c-28 10 -49 29 -49 74c0 57 38 83 112 83zM132 515c40 0 61 14 61 50c0 31 -14 43 -46 52h-30c-30 -9 -46 -21 -46 -55
c0 -33 23 -47 61 -47zM132 753c-41 0 -57 -14 -57 -41c0 -28 12 -39 42 -49h30c32 10 42 21 42 48c0 28 -16 42 -57 42z" />
    <glyph glyph-name="ninesuperior" unicode="&#x2079;" horiz-adv-x="265" 
d="M33 479l3 45s44 -6 81 -6c50 0 71 28 72 83c0 0 -37 -14 -68 -14c-64 0 -102 40 -102 105c0 69 47 107 110 107c78 0 115 -53 115 -167c0 -121 -39 -164 -123 -164c-40 0 -88 11 -88 11zM127 633c26 0 63 17 63 17c-2 64 -17 101 -60 101c-34 0 -55 -20 -55 -59
c0 -34 18 -59 52 -59z" />
    <glyph glyph-name="zeroinferior" unicode="&#x2080;" horiz-adv-x="265" 
d="M134 321c74 0 117 -41 117 -165c0 -126 -46 -166 -116 -166c-71 0 -117 40 -117 167c0 124 44 164 116 164zM134 272c-42 0 -61 -30 -61 -116c0 -90 22 -116 62 -116c39 0 61 26 61 117c0 83 -19 115 -62 115z" />
    <glyph glyph-name="oneinferior" unicode="&#x2081;" horiz-adv-x="265" 
d="M33 243l101 69h51v-312h-54v253l-73 -50z" />
    <glyph glyph-name="twoinferior" unicode="&#x2082;" horiz-adv-x="265" 
d="M228 0h-204v48l92 93c30 30 52 54 52 88c0 30 -22 41 -52 41c-31 0 -86 -10 -86 -10l-3 49s57 12 99 12c66 0 97 -28 97 -88c0 -47 -23 -78 -63 -116l-66 -68h134v-49z" />
    <glyph glyph-name="threeinferior" unicode="&#x2083;" horiz-adv-x="265" 
d="M31 311c0 0 56 10 100 10c69 0 102 -25 102 -82c0 -53 -38 -73 -43 -76c32 -10 52 -23 52 -77c0 -66 -39 -96 -105 -96c-49 0 -110 11 -110 11l3 47s56 -8 102 -8c38 0 54 19 54 47c0 38 -21 49 -51 49h-65v47h64c20 0 44 22 44 51c0 25 -14 38 -51 38
c-43 0 -93 -8 -93 -8z" />
    <glyph glyph-name="fourinferior" unicode="&#x2084;" horiz-adv-x="265" 
d="M158 0v51h-142v46l76 215h58l-78 -211h86l4 87h50v-87h30v-50h-30v-51h-54z" />
    <glyph glyph-name="fiveinferior" unicode="&#x2085;" horiz-adv-x="265" 
d="M47 312h182v-49h-136l-6 -83s23 18 60 18c53 0 95 -24 95 -99c0 -72 -44 -108 -105 -108c-47 0 -104 13 -104 13l4 47s54 -11 95 -11c31 0 53 19 53 58c0 40 -21 52 -46 52c-32 0 -59 -18 -59 -18l-43 5z" />
    <glyph glyph-name="sixinferior" unicode="&#x2086;" horiz-adv-x="265" 
d="M231 312l-3 -46s-46 7 -82 7c-45 0 -67 -24 -67 -85c0 -1 35 16 64 16c70 0 102 -37 102 -102c0 -69 -42 -112 -108 -112c-76 0 -115 52 -115 164c0 120 41 167 123 167c37 0 86 -9 86 -9zM137 157c-30 0 -59 -18 -59 -19c1 -62 16 -99 58 -99c40 0 54 27 54 62
c0 41 -15 56 -53 56z" />
    <glyph glyph-name="seveninferior" unicode="&#x2087;" horiz-adv-x="265" 
d="M28 260v52h202v-71l-108 -250l-57 11l105 236v22h-142z" />
    <glyph glyph-name="eightinferior" unicode="&#x2088;" horiz-adv-x="265" 
d="M132 321c73 0 112 -26 112 -84c0 -43 -16 -64 -48 -74c30 -9 53 -27 53 -76c0 -75 -47 -97 -117 -97c-68 0 -117 23 -117 93c0 51 25 69 54 81c-28 10 -49 29 -49 74c0 57 38 83 112 83zM132 37c40 0 61 14 61 50c0 31 -14 43 -46 52h-30c-30 -9 -46 -21 -46 -55
c0 -33 23 -47 61 -47zM132 275c-41 0 -57 -14 -57 -41c0 -28 12 -39 42 -49h30c32 10 42 21 42 48c0 28 -16 42 -57 42z" />
    <glyph glyph-name="nineinferior" unicode="&#x2089;" horiz-adv-x="265" 
d="M33 1l3 45s44 -6 81 -6c50 0 71 28 72 83c0 0 -37 -14 -68 -14c-64 0 -102 40 -102 105c0 69 47 107 110 107c78 0 115 -53 115 -167c0 -121 -39 -164 -123 -164c-40 0 -88 11 -88 11zM127 155c26 0 63 17 63 17c-2 64 -17 101 -60 101c-34 0 -55 -20 -55 -59
c0 -34 18 -59 52 -59z" />
    <glyph glyph-name="zero.dnom" horiz-adv-x="265" 
d="M134 221c74 0 117 -41 117 -165c0 -126 -46 -166 -116 -166c-71 0 -117 40 -117 167c0 124 44 164 116 164zM134 172c-42 0 -61 -30 -61 -116c0 -90 22 -116 62 -116c39 0 61 26 61 117c0 83 -19 115 -62 115z" />
    <glyph glyph-name="one.dnom" horiz-adv-x="265" 
d="M33 143l101 69h51v-312h-54v253l-73 -50z" />
    <glyph glyph-name="two.dnom" horiz-adv-x="265" 
d="M228 -100h-204v48l92 93c30 30 52 54 52 88c0 30 -22 41 -52 41c-31 0 -86 -10 -86 -10l-3 49s57 12 99 12c66 0 97 -28 97 -88c0 -47 -23 -78 -63 -116l-66 -68h134v-49z" />
    <glyph glyph-name="three.dnom" horiz-adv-x="265" 
d="M31 211c0 0 56 10 100 10c69 0 102 -25 102 -82c0 -53 -38 -73 -43 -76c32 -10 52 -23 52 -77c0 -66 -39 -96 -105 -96c-49 0 -110 11 -110 11l3 47s56 -8 102 -8c38 0 54 19 54 47c0 38 -21 49 -51 49h-65v47h64c20 0 44 22 44 51c0 25 -14 38 -51 38
c-43 0 -93 -8 -93 -8z" />
    <glyph glyph-name="four.dnom" horiz-adv-x="265" 
d="M158 -100v51h-142v46l76 215h58l-78 -211h86l4 87h50v-87h30v-50h-30v-51h-54z" />
    <glyph glyph-name="five.dnom" horiz-adv-x="265" 
d="M47 212h182v-49h-136l-6 -83s23 18 60 18c53 0 95 -24 95 -99c0 -72 -44 -108 -105 -108c-47 0 -104 13 -104 13l4 47s54 -11 95 -11c31 0 53 19 53 58c0 40 -21 52 -46 52c-32 0 -59 -18 -59 -18l-43 5z" />
    <glyph glyph-name="six.dnom" horiz-adv-x="265" 
d="M231 212l-3 -46s-46 7 -82 7c-45 0 -67 -24 -67 -85c0 -1 35 16 64 16c70 0 102 -37 102 -102c0 -69 -42 -112 -108 -112c-76 0 -115 52 -115 164c0 120 41 167 123 167c37 0 86 -9 86 -9zM137 57c-30 0 -59 -18 -59 -19c1 -62 16 -99 58 -99c40 0 54 27 54 62
c0 41 -15 56 -53 56z" />
    <glyph glyph-name="seven.dnom" horiz-adv-x="265" 
d="M28 160v52h202v-71l-108 -250l-57 11l105 236v22h-142z" />
    <glyph glyph-name="eight.dnom" horiz-adv-x="265" 
d="M132 221c73 0 112 -26 112 -84c0 -43 -16 -64 -48 -74c30 -9 53 -27 53 -76c0 -75 -47 -97 -117 -97c-68 0 -117 23 -117 93c0 51 25 69 54 81c-28 10 -49 29 -49 74c0 57 38 83 112 83zM132 -63c40 0 61 14 61 50c0 31 -14 43 -46 52h-30c-30 -9 -46 -21 -46 -55
c0 -33 23 -47 61 -47zM132 175c-41 0 -57 -14 -57 -41c0 -28 12 -39 42 -49h30c32 10 42 21 42 48c0 28 -16 42 -57 42z" />
    <glyph glyph-name="nine.dnom" horiz-adv-x="265" 
d="M33 -99l3 45s44 -6 81 -6c50 0 71 28 72 83c0 0 -37 -14 -68 -14c-64 0 -102 40 -102 105c0 69 47 107 110 107c78 0 115 -53 115 -167c0 -121 -39 -164 -123 -164c-40 0 -88 11 -88 11zM127 55c26 0 63 17 63 17c-2 64 -17 101 -60 101c-34 0 -55 -20 -55 -59
c0 -34 18 -59 52 -59z" />
    <glyph glyph-name="_323" horiz-adv-x="744" 
d="M94 0v101h66v-101h-66zM348 0v101h66v-101h-66zM602 0v101h66v-101h-66z" />
    <glyph glyph-name="_324" horiz-adv-x="386" 
d="M9 -42c0 168 193 208 193 309v38h63v-41c0 -127 -193 -168 -193 -302c0 -84 46 -112 145 -112c48 0 158 26 158 26l7 -59s-113 -27 -167 -27c-134 0 -206 43 -206 168zM266 499v-101h-66v101h66z" />
    <glyph glyph-name="_325" horiz-adv-x="386" 
d="M16 158c0 168 193 208 193 309v38h63v-41c0 -127 -193 -168 -193 -302c0 -84 46 -112 145 -112c48 0 158 26 158 26l7 -59s-113 -27 -167 -27c-134 0 -206 43 -206 168zM273 699v-101h-66v101h66z" />
    <glyph glyph-name="questiondown" unicode="&#xbf;" horiz-adv-x="386" 
d="M9 -42c0 168 193 208 193 309v38h63v-41c0 -127 -193 -168 -193 -302c0 -84 46 -112 145 -112c48 0 158 26 158 26l7 -59s-113 -27 -167 -27c-134 0 -206 43 -206 168zM266 499v-101h-66v101h66z" />
    <glyph glyph-name="questiondown.cap" horiz-adv-x="386" 
d="M16 158c0 168 193 208 193 309v38h63v-41c0 -127 -193 -168 -193 -302c0 -84 46 -112 145 -112c48 0 158 26 158 26l7 -59s-113 -27 -167 -27c-134 0 -206 43 -206 168zM273 699v-101h-66v101h66z" />
    <glyph glyph-name="ellipsis" unicode="&#x2026;" horiz-adv-x="744" 
d="M94 0v101h66v-101h-66zM348 0v101h66v-101h-66zM602 0v101h66v-101h-66z" />
    <glyph glyph-name="endash.cap" horiz-adv-x="500" 
d="M0 328h500v-56h-500v56z" />
    <glyph glyph-name="emdash.cap" horiz-adv-x="1000" 
d="M0 328h1000v-56h-1000v56z" />
    <glyph glyph-name="periodcentered" unicode="&#xb7;" horiz-adv-x="248" 
d="M85 254v101h66v-101h-66z" />
    <glyph glyph-name="periodcentered.cap" horiz-adv-x="248" 
d="M85 287v101h66v-101h-66z" />
    <glyph glyph-name="currency" unicode="&#xa4;" horiz-adv-x="529" 
d="M437 37l-70 70c-61 -43 -144 -43 -205 1l-69 -71l-43 43l71 69c-44 61 -44 144 -1 205l-70 70l43 43l69 -71c61 43 144 43 205 0l70 71l43 -43l-71 -70c43 -61 43 -144 0 -205l71 -69zM180 167c47 -45 123 -45 169 0c46 47 46 123 0 169s-122 46 -169 0
c-45 -46 -45 -122 0 -169z" />
    <glyph glyph-name="perthousand" unicode="&#x2030;" horiz-adv-x="833" 
d="M130 657c-42 0 -57 -30 -57 -92c0 -63 15 -97 57 -97s56 34 56 96c0 63 -14 93 -56 93zM157 5l186 701l46 -12l-186 -699zM22 565c0 95 42 136 108 136c65 0 107 -41 107 -137s-43 -140 -107 -140c-65 0 -108 44 -108 141zM305 141c0 95 41 136 107 136
c65 0 107 -41 107 -137s-43 -140 -107 -140c-65 0 -107 44 -107 141zM355 141c0 -64 16 -97 57 -97c42 0 56 33 56 96c0 62 -14 93 -56 93c-41 0 -57 -31 -57 -92zM562 141c0 95 42 136 108 136c65 0 107 -41 107 -137s-43 -140 -107 -140c-65 0 -108 44 -108 141zM613 141
c0 -64 15 -97 57 -97s56 33 56 96c0 62 -14 93 -56 93s-57 -31 -57 -92z" />
    <glyph glyph-name="lessequal" unicode="&#x2264;" 
d="M428 483l-287 -122l287 -131v-66l-344 159v72l344 152v-64zM84 49v60h344v-60h-344z" />
    <glyph glyph-name="greaterequal" unicode="&#x2265;" 
d="M391 361l-290 122v64l347 -152v-72l-347 -159v66zM101 49v60h347v-60h-347z" />
    <glyph glyph-name="logicalnot" unicode="&#xac;" 
d="M64 341h404v-223h-59v165h-345v58z" />
    <glyph glyph-name="Delta" unicode="&#x394;" 
d="M43 48l167 619h113l168 -620v-47h-448v48zM278 611h-23l-148 -555h319z" />
    <glyph glyph-name="Delta" unicode="&#x2206;" 
d="M43 48l167 619h113l168 -620v-47h-448v48zM278 611h-23l-148 -555h319z" />
    <glyph glyph-name="Omega" unicode="&#x3a9;" 
d="M29 43h130s-110 170 -110 327c0 199 43 300 216 300s215 -101 215 -300c0 -157 -110 -327 -110 -327h131v-52h-194v42s111 185 111 324c0 167 -21 253 -153 253c-136 0 -153 -86 -153 -253c0 -139 110 -324 110 -324v-42h-193v52z" />
    <glyph glyph-name="Omega" unicode="&#x2126;" 
d="M29 43h130s-110 170 -110 327c0 199 43 300 216 300s215 -101 215 -300c0 -157 -110 -327 -110 -327h131v-52h-194v42s111 185 111 324c0 167 -21 253 -153 253c-136 0 -153 -86 -153 -253c0 -139 110 -324 110 -324v-42h-193v52z" />
    <glyph glyph-name="oslashacute" unicode="&#x1ff;" horiz-adv-x="527" 
d="M265 509c29 0 54 -4 77 -10l43 106l43 -15l-45 -108c62 -36 90 -109 90 -225c0 -179 -41 -267 -208 -267c-31 0 -57 3 -80 8l-45 -111l-43 15l46 111c-68 36 -89 114 -89 245c0 177 56 251 211 251zM265 455c-115 0 -150 -48 -150 -197c0 -100 9 -161 52 -191l154 380
c-16 5 -35 8 -56 8zM265 44c129 0 146 70 146 213c0 86 -16 141 -52 170l-154 -377c17 -4 37 -6 60 -6zM148 648l208 95l23 -55l-210 -89z" />
    <glyph glyph-name="exclamdown" unicode="&#xa1;" 
d="M304 499v-101h-66v101h66zM301 274l2 -474h-64l2 474h60z" />
    <glyph glyph-name="exclamdown.cap" 
d="M304 649v-101h-66v101h66zM301 424l2 -474h-64l2 474h60z" />
    <glyph glyph-name="quotesinglbase" unicode="&#x201a;" horiz-adv-x="183" 
d="M138 115l-42 -211h-63l51 211h54z" />
    <glyph glyph-name="parenleft.cap" horiz-adv-x="260" 
d="M140 780h63s-95 -260 -95 -449c0 -186 95 -426 95 -426h-63s-97 226 -97 426s97 449 97 449z" />
    <glyph glyph-name="parenright.cap" horiz-adv-x="260" 
d="M104 -90h-63s95 260 95 449c0 186 -95 426 -95 426h63s97 -226 97 -426s-97 -449 -97 -449z" />
    <glyph glyph-name="bracketleft.cap" horiz-adv-x="300" 
d="M243 779v-57h-139v-758h139v-57h-199v872h199z" />
    <glyph glyph-name="bracketright.cap" horiz-adv-x="300" 
d="M44 722v57h199v-872h-199v57h139v758h-139z" />
    <glyph glyph-name="braceleft.cap" horiz-adv-x="298" 
d="M170 200c-2 -37 -7 -79 -7 -117c0 -76 24 -118 125 -123l-2 -57c-133 5 -186 57 -186 176c0 39 7 98 7 123c0 59 -25 91 -101 113v52c77 19 101 52 101 112c0 28 -7 91 -7 128c0 121 53 171 186 176l2 -57c-101 -5 -125 -44 -125 -122c0 -33 7 -92 7 -121
c0 -86 -27 -117 -100 -141c73 -24 100 -59 100 -142z" />
    <glyph glyph-name="braceright.cap" horiz-adv-x="298" 
d="M120 483c2 37 7 79 7 117c0 76 -24 118 -125 123l2 57c133 -5 186 -57 186 -176c0 -39 -7 -98 -7 -123c0 -59 25 -91 101 -113v-52c-77 -19 -101 -52 -101 -112c0 -28 7 -91 7 -128c0 -121 -53 -171 -186 -176l-2 57c101 5 125 44 125 122c0 33 -7 92 -7 121
c0 86 27 117 100 141c-73 24 -100 59 -100 142z" />
    <glyph glyph-name="grave.cap" horiz-adv-x="228" 
d="M32 930l208 -95l-21 -48l-210 88z" />
    <glyph glyph-name="gravecomb" unicode="&#x300;" horiz-adv-x="228" 
d="M38 743l208 -95l-20 -47l-210 89z" />
    <glyph glyph-name="gravecomb.cap" horiz-adv-x="228" 
d="M46 930l208 -95l-21 -48l-210 88z" />
    <glyph glyph-name="acute.cap" horiz-adv-x="228" 
d="M14 838l208 95l23 -55l-210 -89z" />
    <glyph glyph-name="acutecomb" unicode="&#x301;" horiz-adv-x="228" 
d="M5 648l208 95l23 -55l-210 -89z" />
    <glyph glyph-name="acutecomb.cap" horiz-adv-x="228" 
d="M15 838l208 95l23 -55l-210 -89z" />
    <glyph glyph-name="circumflex.cap" horiz-adv-x="456" 
d="M61 803l134 131h53l133 -131h-71l-88 83l-88 -83h-73z" />
    <glyph glyph-name="uni0302" unicode="&#x302;" horiz-adv-x="228" 
d="M-19 595l124 142h48l124 -142h-68l-79 90l-81 -90h-68z" />
    <glyph glyph-name="uni0302.cap" horiz-adv-x="228" 
d="M-28 803l134 131h53l133 -131h-71l-88 83l-88 -83h-73z" />
    <glyph glyph-name="caron.cap" horiz-adv-x="228" 
d="M288 933l-133 -131h-53l-134 131h72l88 -84l88 84h72z" />
    <glyph glyph-name="uni030C" unicode="&#x30c;" horiz-adv-x="228" 
d="M99 595l-123 142h67l81 -89l80 89h68l-124 -142h-49z" />
    <glyph glyph-name="uni030C.cap" horiz-adv-x="228" 
d="M287 933l-133 -131h-53l-134 131h72l88 -84l88 84h72z" />
    <glyph glyph-name="uni0315" unicode="&#x315;" horiz-adv-x="145" 
d="M100 697v-227h-58v227h58z" />
    <glyph glyph-name="tilde.cap" horiz-adv-x="228" 
d="M293 920l16 -46s-52 -57 -89 -57c-45 0 -129 59 -162 59c-22 0 -80 -51 -80 -51l-14 47s56 58 94 58c47 0 130 -58 161 -58c20 0 74 48 74 48z" />
    <glyph glyph-name="tildecomb" unicode="&#x303;" horiz-adv-x="228" 
d="M267 714l14 -47s-45 -48 -81 -48c-43 0 -116 51 -148 51c-23 0 -72 -44 -72 -44l-15 47s50 51 88 51c45 0 116 -50 147 -50c20 0 67 40 67 40z" />
    <glyph glyph-name="tildecomb.cap" horiz-adv-x="228" 
d="M293 920l16 -46s-52 -57 -89 -57c-45 0 -129 59 -162 59c-22 0 -80 -51 -80 -51l-14 47s56 58 94 58c47 0 130 -58 161 -58c20 0 74 48 74 48z" />
    <glyph glyph-name="dieresis.cap" horiz-adv-x="228" 
d="M-10 827v79h59v-79h-59zM193 827v79h58v-79h-58z" />
    <glyph glyph-name="uni0308" unicode="&#x308;" horiz-adv-x="228" 
d="M-8 630v79h59v-79h-59zM189 630v79h58v-79h-58z" />
    <glyph glyph-name="uni0308.cap" horiz-adv-x="228" 
d="M-10 827v79h59v-79h-59zM193 827v79h58v-79h-58z" />
    <glyph glyph-name="macron.cap" horiz-adv-x="228" 
d="M-21 822v53h302v-53h-302z" />
    <glyph glyph-name="uni0304" unicode="&#x304;" horiz-adv-x="228" 
d="M-21 637v53h282v-53h-282z" />
    <glyph glyph-name="uni0304.cap" horiz-adv-x="228" 
d="M-21 822v53h302v-53h-302z" />
    <glyph glyph-name="breve" unicode="&#x2d8;" horiz-adv-x="228" 
d="M-24 729h61c1 -49 34 -83 91 -83s90 34 91 83h61c-2 -79 -58 -137 -152 -137s-149 58 -152 137z" />
    <glyph glyph-name="breve.cap" horiz-adv-x="228" 
d="M-19 925h61c1 -47 41 -75 89 -75c49 0 88 28 89 75h61c-2 -76 -64 -127 -150 -127s-147 51 -150 127z" />
    <glyph glyph-name="uni0306" unicode="&#x306;" horiz-adv-x="228" 
d="M-24 729h61c1 -49 34 -83 91 -83s90 34 91 83h61c-2 -79 -58 -137 -152 -137s-149 58 -152 137z" />
    <glyph glyph-name="uni0306.cap" horiz-adv-x="228" 
d="M-19 925h61c1 -47 41 -75 89 -75c49 0 88 28 89 75h61c-2 -76 -64 -127 -150 -127s-147 51 -150 127z" />
    <glyph glyph-name="ring.cap" horiz-adv-x="228" 
d="M237 797c0 -64 -46 -101 -110 -101s-110 37 -110 101c0 63 46 100 110 100s110 -37 110 -100zM67 797c0 -35 23 -55 60 -55s60 20 60 55s-23 54 -60 54s-60 -19 -60 -54z" />
    <glyph glyph-name="uni030A" unicode="&#x30a;" horiz-adv-x="228" 
d="M18 647c0 56 44 100 101 100c56 0 100 -44 100 -100c0 -57 -44 -101 -100 -101c-57 0 -101 44 -101 101zM65 647c0 -31 24 -56 54 -56s54 25 54 56c0 30 -24 55 -54 55s-54 -25 -54 -55z" />
    <glyph glyph-name="uni030A.cap" horiz-adv-x="228" 
d="M232 797c0 -64 -46 -101 -110 -101s-110 37 -110 101c0 63 46 100 110 100s110 -37 110 -100zM62 797c0 -35 23 -55 60 -55s60 20 60 55s-23 54 -60 54s-60 -19 -60 -54z" />
    <glyph glyph-name="hungarumlaut" unicode="&#x2dd;" horiz-adv-x="228" 
d="M139 623l151 126l41 -37l-153 -125zM-51 623l152 126l40 -37l-153 -125z" />
    <glyph glyph-name="hungarumlaut.cap" horiz-adv-x="228" 
d="M150 789l160 115l43 -33l-163 -114zM-47 790l160 115l42 -34l-162 -113z" />
    <glyph glyph-name="uni030B" unicode="&#x30b;" horiz-adv-x="228" 
d="M139 623l151 126l41 -37l-153 -125zM-51 623l152 126l40 -37l-153 -125z" />
    <glyph glyph-name="uni030B.cap" horiz-adv-x="228" 
d="M150 789l160 115l43 -33l-163 -114zM-47 790l160 115l42 -34l-162 -113z" />
    <glyph glyph-name="dotaccent" unicode="&#x2d9;" horiz-adv-x="228" 
d="M84 623v75h60v-75h-60z" />
    <glyph glyph-name="dotaccent.cap" horiz-adv-x="228" 
d="M84 781v75h60v-75h-60z" />
    <glyph glyph-name="uni0307" unicode="&#x307;" horiz-adv-x="228" 
d="M84 623v75h60v-75h-60z" />
    <glyph glyph-name="uni0307.cap" horiz-adv-x="228" 
d="M84 781v75h60v-75h-60z" />
    <glyph glyph-name="ogonek" unicode="&#x2db;" horiz-adv-x="444" 
d="M335 -144l6 -51s-41 -9 -73 -9c-50 0 -87 32 -87 85c0 54 82 126 82 126l54 -6s-74 -74 -74 -107c0 -24 16 -44 41 -44c16 0 51 6 51 6z" />
    <glyph glyph-name="uni0328" unicode="&#x328;" horiz-adv-x="444" 
d="M335 -144l6 -51s-41 -9 -73 -9c-50 0 -87 32 -87 85c0 54 82 126 82 126l54 -6s-74 -74 -74 -107c0 -24 16 -44 41 -44c16 0 51 6 51 6z" />
    <glyph glyph-name="uni0326" unicode="&#x326;" horiz-adv-x="170" 
d="M30 -278l40 200h60l-49 -200h-51z" />
    <glyph glyph-name="uni0312" unicode="&#x312;" horiz-adv-x="170" 
d="M130 791l-40 -201h-60l48 201h52z" />
    <glyph glyph-name="Amacron" unicode="&#x100;" horiz-adv-x="604" 
d="M31 0l200 697h145l197 -696h-62l-58 189h-304l-56 -190h-62zM276 640l-112 -391h275l-111 391h-52zM143 822v53h302v-53h-302z" />
    <glyph glyph-name="Abreve" unicode="&#x102;" horiz-adv-x="604" 
d="M31 0l200 697h145l197 -696h-62l-58 189h-304l-56 -190h-62zM276 640l-112 -391h275l-111 391h-52zM152 925h61c1 -47 41 -75 89 -75s88 28 89 75h61c-2 -77 -64 -127 -150 -127s-148 50 -150 127z" />
    <glyph glyph-name="Aringacute" unicode="&#x1fa;" horiz-adv-x="604" 
d="M411 750c0 -31 -11 -56 -30 -73l192 -676h-62l-58 189h-304l-56 -190h-62l193 674c-21 17 -33 42 -33 76c0 64 46 101 110 101s110 -37 110 -101zM276 640l-112 -391h275l-111 391h-52zM184 930l208 95l23 -55l-210 -88zM241 750c0 -29 15 -48 42 -53h36
c26 5 42 24 42 53c0 35 -23 55 -60 55s-60 -20 -60 -55z" />
    <glyph glyph-name="Aogonek" unicode="&#x104;" horiz-adv-x="604" 
d="M586 -144l6 -51s-41 -9 -73 -9c-50 0 -87 32 -87 85c0 48 63 110 78 123l-57 186h-304l-56 -190h-62l200 697h145l197 -696h-5s-74 -74 -74 -107c0 -24 16 -44 41 -44c16 0 51 6 51 6zM276 640l-112 -391h275l-111 391h-52z" />
    <glyph glyph-name="AEacute" unicode="&#x1fc;" horiz-adv-x="838" 
d="M429 0v190h-261l-65 -190h-65l234 697h573v-58h-355v-252h295v-58h-295v-271h355v-58h-416zM318 639l-132 -390h243v390h-111zM325 838l208 95l23 -55l-210 -89z" />
    <glyph glyph-name="Cacute" unicode="&#x106;" horiz-adv-x="535" 
d="M490 68l3 -56s-109 -22 -188 -22c-207 0 -252 130 -252 356c0 229 44 361 252 361c93 0 189 -21 189 -21l-4 -57s-106 19 -180 19c-167 0 -193 -107 -193 -302c0 -192 27 -296 194 -296c66 0 179 18 179 18zM174 838l208 95l23 -55l-210 -89z" />
    <glyph glyph-name="Ccircumflex" unicode="&#x108;" horiz-adv-x="535" 
d="M490 68l3 -56s-109 -22 -188 -22c-207 0 -252 130 -252 356c0 229 44 361 252 361c93 0 189 -21 189 -21l-4 -57s-106 19 -180 19c-167 0 -193 -107 -193 -302c0 -192 27 -296 194 -296c66 0 179 18 179 18zM145 799l134 131h53l133 -131h-71l-88 83l-88 -83h-73z" />
    <glyph glyph-name="Ccaron" unicode="&#x10c;" horiz-adv-x="535" 
d="M490 68l3 -56s-109 -22 -188 -22c-207 0 -252 130 -252 356c0 229 44 361 252 361c93 0 189 -21 189 -21l-4 -57s-106 19 -180 19c-167 0 -193 -107 -193 -302c0 -192 27 -296 194 -296c66 0 179 18 179 18zM454 933l-133 -131h-53l-134 131h72l88 -84l88 84h72z" />
    <glyph glyph-name="Cdotaccent" unicode="&#x10a;" horiz-adv-x="535" 
d="M490 68l3 -56s-109 -22 -188 -22c-207 0 -252 130 -252 356c0 229 44 361 252 361c93 0 189 -21 189 -21l-4 -57s-106 19 -180 19c-167 0 -193 -107 -193 -302c0 -192 27 -296 194 -296c66 0 179 18 179 18zM260 828v75h60v-75h-60z" />
    <glyph glyph-name="Dcaron" unicode="&#x10e;" horiz-adv-x="646" 
d="M346 0h-251v697h251c192 0 248 -149 248 -338c0 -190 -55 -359 -248 -359zM530 359c0 148 -38 280 -184 280h-190v-581h190c146 0 184 153 184 301zM459 933l-133 -131h-53l-134 131h72l88 -84l88 84h72z" />
    <glyph glyph-name="Ecaron" unicode="&#x11a;" horiz-adv-x="567" 
d="M95 0v697h416v-58h-355v-255h295v-58h-295v-268h355v-58h-416zM472 937l-133 -131h-53l-134 131h72l88 -84l88 84h72z" />
    <glyph glyph-name="Emacron" unicode="&#x112;" horiz-adv-x="567" 
d="M95 0v697h416v-58h-355v-255h295v-58h-295v-268h355v-58h-416zM150 824v53h302v-53h-302z" />
    <glyph glyph-name="Ebreve" unicode="&#x114;" horiz-adv-x="567" 
d="M95 0v697h416v-58h-355v-255h295v-58h-295v-268h355v-58h-416zM161 925h61c1 -47 41 -75 89 -75s88 28 89 75h61c-2 -76 -64 -127 -150 -127s-148 51 -150 127z" />
    <glyph glyph-name="Edotaccent" unicode="&#x116;" horiz-adv-x="567" 
d="M95 0v697h416v-58h-355v-255h295v-58h-295v-268h355v-58h-416zM273 828v75h60v-75h-60z" />
    <glyph glyph-name="Eogonek" unicode="&#x118;" horiz-adv-x="567" 
d="M95 0v697h416v-58h-355v-255h295v-58h-295v-268h355v-58h-28c-4 -3 -73 -74 -73 -106c0 -24 16 -44 41 -44c16 0 51 6 51 6l6 -51s-41 -9 -73 -9c-50 0 -87 32 -87 85c0 45 54 101 74 119h-327z" />
    <glyph glyph-name="Gcircumflex" unicode="&#x11c;" horiz-adv-x="611" 
d="M355 295v57h189v-337s-142 -25 -223 -25c-209 0 -266 132 -266 357s55 360 265 360c105 0 224 -26 224 -26l-3 -56s-125 23 -216 23c-170 0 -206 -107 -206 -301c0 -193 36 -298 205 -298c64 0 154 16 159 16v230h-128zM158 799l134 131h53l133 -131h-71l-88 83l-88 -83
h-73z" />
    <glyph glyph-name="Gbreve" unicode="&#x11e;" horiz-adv-x="611" 
d="M355 295v57h189v-337s-142 -25 -223 -25c-209 0 -266 132 -266 357s55 360 265 360c105 0 224 -26 224 -26l-3 -56s-125 23 -216 23c-170 0 -206 -107 -206 -301c0 -193 36 -298 205 -298c64 0 154 16 159 16v230h-128zM175 925h61c1 -47 41 -75 89 -75c49 0 88 28 89 75
h61c-2 -77 -64 -127 -150 -127s-147 50 -150 127z" />
    <glyph glyph-name="Gdotaccent" unicode="&#x120;" horiz-adv-x="611" 
d="M355 295v57h189v-337s-142 -25 -223 -25c-209 0 -266 132 -266 357s55 360 265 360c105 0 224 -26 224 -26l-3 -56s-125 23 -216 23c-170 0 -206 -107 -206 -301c0 -193 36 -298 205 -298c64 0 154 16 159 16v230h-128zM278 830v75h60v-75h-60z" />
    <glyph glyph-name="Gcommaaccent" unicode="&#x122;" horiz-adv-x="611" 
d="M355 295v57h189v-337s-142 -25 -223 -25c-209 0 -266 132 -266 357s55 360 265 360c105 0 224 -26 224 -26l-3 -56s-125 23 -216 23c-170 0 -206 -107 -206 -301c0 -193 36 -298 205 -298c64 0 154 16 159 16v230h-128zM256 -278l40 200h60l-49 -200h-51z" />
    <glyph glyph-name="Hcircumflex" unicode="&#x124;" horiz-adv-x="688" 
d="M533 0v322h-377v-322h-61v697h61v-317h377v317h61v-697h-61zM185 798l134 131h53l133 -131h-71l-88 83l-88 -83h-73z" />
    <glyph glyph-name="Hbar" unicode="&#x126;" horiz-adv-x="688" 
d="M17 513v53h78v131h61v-131h377v131h61v-131h87v-53h-87v-513h-61v322h-377v-322h-61v513h-78zM156 380h377v133h-377v-133z" />
    <glyph glyph-name="Itilde" unicode="&#x128;" horiz-adv-x="239" 
d="M89 0v697h61v-697h-61zM282 910l15 -47s-52 -57 -89 -57c-45 0 -129 59 -161 59c-23 0 -80 -51 -80 -51l-15 47s56 59 94 59c48 0 130 -58 161 -58c20 0 75 48 75 48z" />
    <glyph glyph-name="Imacron" unicode="&#x12a;" horiz-adv-x="239" 
d="M89 0v697h61v-697h-61zM-31 835v53h302v-53h-302z" />
    <glyph glyph-name="Ibreve" unicode="&#x12c;" horiz-adv-x="239" 
d="M89 0v697h61v-697h-61zM-31 925h61c2 -47 41 -75 89 -75c49 0 89 28 90 75h61c-3 -77 -65 -127 -151 -127c-85 0 -147 50 -150 127z" />
    <glyph glyph-name="Idotaccent" unicode="&#x130;" horiz-adv-x="239" 
d="M89 0v697h61v-697h-61zM89 828v75h60v-75h-60z" />
    <glyph glyph-name="Iogonek" unicode="&#x12e;" horiz-adv-x="239" 
d="M168 -144l6 -51s-41 -9 -73 -9c-50 0 -87 32 -87 85c0 46 56 102 75 119v697h61v-697h-1c-4 -3 -73 -74 -73 -106c0 -24 16 -44 41 -44c16 0 51 6 51 6z" />
    <glyph glyph-name="Jcircumflex" unicode="&#x134;" horiz-adv-x="306" 
d="M217 698c0 -212 1 -377 1 -591c0 -170 -57 -179 -184 -179v57c99 0 121 4 121 132v581h62zM8 798l134 131h53l133 -131h-71l-88 83l-88 -83h-73z" />
    <glyph glyph-name="Kcommaaccent" unicode="&#x136;" horiz-adv-x="596" 
d="M479 0l-202 314l-121 -2v-312h-61v697h61v-326l119 2l193 324h72l-210 -349l223 -348h-74zM245 -278l40 200h60l-49 -200h-51z" />
    <glyph glyph-name="Lacute" unicode="&#x139;" horiz-adv-x="519" 
d="M474 0h-379v697h61v-638h318v-59zM145 838l208 95l23 -55l-210 -89z" />
    <glyph glyph-name="Lcaron" unicode="&#x13d;" horiz-adv-x="519" 
d="M474 0h-379v697h61v-638h318v-59zM441 697v-227h-58v227h58z" />
    <glyph glyph-name="Lcommaaccent" unicode="&#x13b;" horiz-adv-x="519" 
d="M474 0h-379v697h61v-638h318v-59zM210 -278l40 200h60l-49 -200h-51z" />
    <glyph glyph-name="Nacute" unicode="&#x143;" horiz-adv-x="690" 
d="M95 0v697h118l297 -628h24v628h62v-697h-117l-300 628h-23v-628h-61zM229 838l208 95l23 -55l-210 -89z" />
    <glyph glyph-name="Ncaron" unicode="&#x147;" horiz-adv-x="690" 
d="M95 0v697h118l297 -628h24v628h62v-697h-117l-300 628h-23v-628h-61zM505 929l-133 -131h-53l-134 131h72l88 -84l88 84h72z" />
    <glyph glyph-name="Ncommaaccent" unicode="&#x145;" horiz-adv-x="690" 
d="M95 0v697h118l297 -628h24v628h62v-697h-117l-300 628h-23v-628h-61zM295 -278l40 200h60l-49 -200h-51z" />
    <glyph glyph-name="Omacron" unicode="&#x14c;" horiz-adv-x="653" 
d="M326 49c173 0 208 94 208 296c0 193 -39 303 -208 303c-170 0 -207 -109 -207 -303c0 -195 35 -296 207 -296zM326 -10c-215 0 -271 123 -271 355c0 229 57 362 271 362s272 -131 272 -362c0 -239 -57 -355 -272 -355zM173 832v53h302v-53h-302z" />
    <glyph glyph-name="Obreve" unicode="&#x14e;" horiz-adv-x="653" 
d="M326 49c173 0 208 94 208 296c0 193 -39 303 -208 303c-170 0 -207 -109 -207 -303c0 -195 35 -296 207 -296zM326 -10c-215 0 -271 123 -271 355c0 229 57 362 271 362s272 -131 272 -362c0 -239 -57 -355 -272 -355zM176 925h61c2 -47 41 -75 89 -75c49 0 89 28 90 75
h61c-3 -77 -65 -127 -151 -127c-85 0 -147 50 -150 127z" />
    <glyph glyph-name="Ohungarumlaut" unicode="&#x150;" horiz-adv-x="653" 
d="M326 49c173 0 208 94 208 296c0 193 -39 303 -208 303c-170 0 -207 -109 -207 -303c0 -195 35 -296 207 -296zM326 -10c-215 0 -271 123 -271 355c0 229 57 362 271 362s272 -131 272 -362c0 -239 -57 -355 -272 -355zM334 810l160 114l43 -33l-164 -114zM136 810
l161 115l42 -34l-163 -113z" />
    <glyph glyph-name="Oslashacute" unicode="&#x1fe;" horiz-adv-x="656" 
d="M326 -10c-48 0 -88 7 -122 18l-58 -124l-55 24l60 129c-73 55 -96 159 -96 308c0 229 57 362 271 362c52 0 94 -8 129 -23l53 113l56 -22l-58 -122c69 -59 92 -164 92 -308c0 -239 -57 -355 -272 -355zM119 345c0 -118 13 -201 60 -249l250 532c-28 13 -62 20 -103 20
c-170 0 -207 -109 -207 -303zM326 49c173 0 208 94 208 296c0 111 -13 195 -57 246l-247 -527c26 -10 58 -15 96 -15zM205 838l208 95l23 -55l-210 -89z" />
    <glyph glyph-name="Racute" unicode="&#x154;" horiz-adv-x="625" 
d="M505 0l-137 273h-212v-273h-61v697h254c145 0 216 -61 216 -207c0 -109 -38 -178 -134 -203l143 -287h-69zM501 490c0 103 -48 149 -152 149h-193v-308h193c116 0 152 63 152 159zM197 838l208 95l23 -55l-210 -89z" />
    <glyph glyph-name="Rcaron" unicode="&#x158;" horiz-adv-x="625" 
d="M505 0l-137 273h-212v-273h-61v697h254c145 0 216 -61 216 -207c0 -109 -38 -178 -134 -203l143 -287h-69zM501 490c0 103 -48 149 -152 149h-193v-308h193c116 0 152 63 152 159zM473 929l-133 -131h-53l-134 131h72l88 -84l88 84h72z" />
    <glyph glyph-name="Rcommaaccent" unicode="&#x156;" horiz-adv-x="626" 
d="M505 0l-137 273h-212v-273h-61v697h254c145 0 216 -61 216 -207c0 -109 -38 -178 -134 -203l143 -287h-69zM501 490c0 103 -48 149 -152 149h-193v-308h193c116 0 152 63 152 159zM262 -278l40 200h60l-49 -200h-51z" />
    <glyph glyph-name="Sacute" unicode="&#x15a;" horiz-adv-x="534" 
d="M472 690l-5 -57s-138 17 -196 17c-104 0 -161 -36 -161 -122c0 -102 53 -118 176 -142c136 -27 201 -60 201 -184c0 -153 -81 -210 -219 -210c-76 0 -213 19 -213 19l6 57s135 -17 206 -17c104 0 157 41 157 148c0 87 -45 109 -161 130c-141 27 -216 57 -216 197
c0 130 86 183 224 183c77 0 201 -19 201 -19zM154 838l208 95l23 -55l-210 -89z" />
    <glyph glyph-name="Scircumflex" unicode="&#x15c;" horiz-adv-x="534" 
d="M472 690l-5 -57s-138 17 -196 17c-104 0 -161 -36 -161 -122c0 -102 53 -118 176 -142c136 -27 201 -60 201 -184c0 -153 -81 -210 -219 -210c-76 0 -213 19 -213 19l6 57s135 -17 206 -17c104 0 157 41 157 148c0 87 -45 109 -161 130c-141 27 -216 57 -216 197
c0 130 86 183 224 183c77 0 201 -19 201 -19zM110 799l134 131h53l133 -131h-71l-88 83l-88 -83h-73z" />
    <glyph glyph-name="Scedilla" unicode="&#x15e;" horiz-adv-x="534" 
d="M399 -127c0 -59 -36 -84 -89 -84c-44 0 -84 6 -84 6l2 40s41 -3 71 -3c28 0 45 10 45 41c0 27 -17 37 -45 37h-47v82c-78 2 -197 19 -197 19l6 57s135 -17 206 -17c104 0 157 41 157 148c0 87 -45 109 -161 130c-141 27 -216 57 -216 197c0 130 86 183 224 183
c77 0 201 -19 201 -19l-5 -57s-138 17 -196 17c-104 0 -161 -36 -161 -122c0 -102 53 -118 176 -142c136 -27 201 -60 201 -184c0 -145 -73 -203 -197 -209v-45c73 0 109 -14 109 -75z" />
    <glyph glyph-name="Scommaaccent" unicode="&#x218;" horiz-adv-x="534" 
d="M472 690l-5 -57s-138 17 -196 17c-104 0 -161 -36 -161 -122c0 -102 53 -118 176 -142c136 -27 201 -60 201 -184c0 -153 -81 -210 -219 -210c-76 0 -213 19 -213 19l6 57s135 -17 206 -17c104 0 157 41 157 148c0 87 -45 109 -161 130c-141 27 -216 57 -216 197
c0 130 86 183 224 183c77 0 201 -19 201 -19zM213 -278l40 200h60l-49 -200h-51z" />
    <glyph glyph-name="Tcaron" unicode="&#x164;" horiz-adv-x="495" 
d="M-3 639v58h500v-58h-218v-639h-61v639h-221zM408 929l-133 -131h-53l-134 131h72l88 -84l88 84h72z" />
    <glyph glyph-name="Tcommaaccent" unicode="&#x162;" horiz-adv-x="495" 
d="M-3 639v58h500v-58h-218v-639h-61v639h-221zM197 -278l40 200h60l-49 -200h-51z" />
    <glyph glyph-name="Tbar" unicode="&#x166;" horiz-adv-x="495" 
d="M53 312v53h165v274h-221v58h500v-58h-218v-274h176v-53h-176v-312h-61v312h-165z" />
    <glyph glyph-name="Utilde" unicode="&#x168;" horiz-adv-x="643" 
d="M144 204c0 -114 67 -154 173 -154c112 0 180 39 180 154v493h61v-493c0 -155 -86 -213 -241 -213c-148 0 -235 58 -235 213v493h62v-493zM480 912l16 -46s-52 -57 -89 -57c-45 0 -129 59 -162 59c-22 0 -80 -52 -80 -52l-14 47s56 59 94 59c47 0 130 -58 161 -58
c20 0 74 48 74 48z" />
    <glyph glyph-name="Umacron" unicode="&#x16a;" horiz-adv-x="643" 
d="M144 204c0 -114 67 -154 173 -154c112 0 180 39 180 154v493h61v-493c0 -155 -86 -213 -241 -213c-148 0 -235 58 -235 213v493h62v-493zM170 832v53h302v-53h-302z" />
    <glyph glyph-name="Ubreve" unicode="&#x16c;" horiz-adv-x="643" 
d="M144 204c0 -114 67 -154 173 -154c112 0 180 39 180 154v493h61v-493c0 -155 -86 -213 -241 -213c-148 0 -235 58 -235 213v493h62v-493zM171 925h61c2 -47 41 -75 89 -75c49 0 89 28 90 75h61c-3 -77 -65 -127 -151 -127c-85 0 -147 50 -150 127z" />
    <glyph glyph-name="Uring" unicode="&#x16e;" horiz-adv-x="643" 
d="M144 204c0 -114 67 -154 173 -154c112 0 180 39 180 154v493h61v-493c0 -155 -86 -213 -241 -213c-148 0 -235 58 -235 213v493h62v-493zM432 847c0 -64 -47 -100 -111 -100s-110 36 -110 100s46 101 110 101s111 -37 111 -101zM262 847c0 -35 22 -55 59 -55
c38 0 60 20 60 55s-22 55 -60 55c-37 0 -59 -20 -59 -55z" />
    <glyph glyph-name="Uhungarumlaut" unicode="&#x170;" horiz-adv-x="643" 
d="M144 204c0 -114 67 -154 173 -154c112 0 180 39 180 154v493h61v-493c0 -155 -86 -213 -241 -213c-148 0 -235 58 -235 213v493h62v-493zM349 789l160 115l43 -33l-164 -114zM151 790l161 115l42 -34l-163 -113z" />
    <glyph glyph-name="Uogonek" unicode="&#x172;" horiz-adv-x="643" 
d="M428 -144l6 -51s-41 -9 -73 -9c-50 0 -87 32 -87 85c0 39 41 87 65 111c-7 -1 -15 -1 -22 -1c-148 0 -235 58 -235 213v493h62v-493c0 -114 67 -154 173 -154c112 0 180 39 180 154v493h61v-493c0 -121 -53 -183 -149 -204c-4 -3 -73 -74 -73 -106c0 -24 16 -44 41 -44
c16 0 51 6 51 6z" />
    <glyph glyph-name="Wgrave" unicode="&#x1e80;" horiz-adv-x="889" 
d="M40 697h62l133 -636h33l142 629h69l146 -629h32l130 636h62l-146 -697h-123l-136 604l-131 -604h-123zM350 930l208 -95l-21 -48l-210 88z" />
    <glyph glyph-name="Wacute" unicode="&#x1e82;" horiz-adv-x="889" 
d="M40 697h62l133 -636h33l142 629h69l146 -629h32l130 636h62l-146 -697h-123l-136 604l-131 -604h-123zM337 838l208 95l23 -55l-210 -89z" />
    <glyph glyph-name="Wcircumflex" unicode="&#x174;" horiz-adv-x="889" 
d="M40 697h62l133 -636h33l142 629h69l146 -629h32l130 636h62l-146 -697h-123l-136 604l-131 -604h-123zM284 799l134 131h53l133 -131h-71l-88 83l-88 -83h-73z" />
    <glyph glyph-name="Wdieresis" unicode="&#x1e84;" horiz-adv-x="889" 
d="M40 697h62l133 -636h33l142 629h69l146 -629h32l130 636h62l-146 -697h-123l-136 604l-131 -604h-123zM314 827v79h58v-79h-58zM516 827v79h58v-79h-58z" />
    <glyph glyph-name="Ygrave" unicode="&#x1ef2;" horiz-adv-x="548" 
d="M306 299v-299h-62v299l-223 398h69l185 -329l182 329h69zM187 930l208 -95l-21 -48l-210 88z" />
    <glyph glyph-name="Ycircumflex" unicode="&#x176;" horiz-adv-x="548" 
d="M306 299v-299h-62v299l-223 398h69l185 -329l182 329h69zM114 799l134 131h53l133 -131h-71l-88 83l-88 -83h-73z" />
    <glyph glyph-name="Zacute" unicode="&#x179;" horiz-adv-x="570" 
d="M60 639v58h450v-85l-378 -534v-20h378v-59h-450v85l378 533v22h-378zM169 838l208 95l23 -55l-210 -89z" />
    <glyph glyph-name="Zdotaccent" unicode="&#x17b;" horiz-adv-x="570" 
d="M60 639v58h450v-85l-378 -534v-20h378v-59h-450v85l378 533v22h-378zM255 828v75h59v-75h-59z" />
    <glyph glyph-name="Eng" unicode="&#x14a;" horiz-adv-x="690" 
d="M95 0v697h118l297 -628h24v628h62v-110c0 -212 1 -377 1 -591c0 -170 -57 -179 -184 -179v57c97 0 120 4 121 126h-55l-300 628h-23v-628h-61z" />
    <glyph glyph-name="amacron" unicode="&#x101;" horiz-adv-x="520" 
d="M427 349v-261c3 -31 32 -41 65 -45l-3 -52c-54 0 -88 10 -113 38c0 0 -90 -39 -192 -39c-84 0 -133 53 -133 151c0 92 45 137 147 146l170 17v45c0 72 -34 103 -96 103c-73 0 -190 -15 -190 -15l-4 53s118 19 196 19c104 0 153 -50 153 -160zM368 254l-163 -15
c-67 -6 -92 -42 -92 -97c0 -64 29 -99 78 -99c85 0 177 34 177 34v177zM116 637v53h282v-53h-282z" />
    <glyph glyph-name="abreve" unicode="&#x103;" horiz-adv-x="520" 
d="M427 349v-261c3 -31 32 -41 65 -45l-3 -52c-54 0 -88 10 -113 38c0 0 -90 -39 -192 -39c-84 0 -133 53 -133 151c0 92 45 137 147 146l170 17v45c0 72 -34 103 -96 103c-73 0 -190 -15 -190 -15l-4 53s118 19 196 19c104 0 153 -50 153 -160zM368 254l-163 -15
c-67 -6 -92 -42 -92 -97c0 -64 29 -99 78 -99c85 0 177 34 177 34v177zM108 729h61c1 -49 34 -83 91 -83s90 34 91 83h61c-2 -79 -58 -137 -152 -137s-149 58 -152 137z" />
    <glyph glyph-name="aringacute" unicode="&#x1fb;" horiz-adv-x="520" 
d="M427 349v-266c3 -29 32 -40 65 -44l-3 -48c-49 0 -86 10 -113 40c0 0 -94 -41 -188 -41c-88 0 -137 51 -137 151c0 92 46 136 147 146l170 17v45c0 75 -34 105 -98 105c-72 0 -189 -14 -189 -14l-3 49s115 20 196 20c104 0 153 -52 153 -160zM368 257l-163 -17
c-67 -6 -92 -38 -92 -98c0 -64 28 -100 83 -100c79 0 172 34 172 34v181zM151 642c0 56 44 100 101 100c56 0 100 -44 100 -100c0 -57 -44 -101 -100 -101c-57 0 -101 44 -101 101zM198 642c0 -31 24 -56 54 -56s54 25 54 56c0 30 -24 55 -54 55s-54 -25 -54 -55zM145 826
l208 95l23 -55l-210 -89z" />
    <glyph glyph-name="aogonek" unicode="&#x105;" horiz-adv-x="520" 
d="M485 -144l6 -51s-41 -9 -73 -9c-50 0 -87 32 -87 85c0 49 67 113 79 124c-13 6 -24 14 -34 26c0 0 -94 -41 -188 -41c-88 0 -137 51 -137 151c0 92 46 136 147 146l170 17v45c0 75 -34 105 -98 105c-72 0 -189 -14 -189 -14l-3 49s115 20 196 20c104 0 153 -52 153 -160
v-266c3 -29 32 -40 65 -44l-3 -48c-11 0 -21 1 -31 2c-18 -19 -65 -72 -65 -99c0 -24 16 -44 41 -44c16 0 51 6 51 6zM368 257l-163 -17c-67 -6 -92 -38 -92 -98c0 -64 28 -100 83 -100c79 0 172 34 172 34v181z" />
    <glyph glyph-name="aeacute" unicode="&#x1fd;" horiz-adv-x="828" 
d="M570 45c73 0 182 9 182 9l2 -50s-112 -14 -190 -14c-69 0 -116 20 -146 56l-34 -15c-9 -4 -94 -41 -197 -41c-87 0 -133 52 -133 151c0 112 56 136 182 150l135 13v45c0 73 -35 103 -96 103c-74 0 -190 -10 -190 -10l-2 54s116 13 194 13c72 0 117 -26 136 -81
c36 59 94 81 163 81c129 0 197 -68 197 -236l-3 -48h-340c1 -118 35 -180 140 -180zM194 43c80 0 185 37 198 42c-18 43 -23 99 -23 169l-161 -15c-64 -6 -92 -34 -92 -97c0 -65 29 -99 78 -99zM430 275h282c0 132 -43 181 -136 181c-92 0 -146 -52 -146 -181zM308 648
l208 95l23 -55l-210 -89z" />
    <glyph glyph-name="cacute" unicode="&#x107;" horiz-adv-x="437" 
d="M260 509c43 0 130 -12 130 -12l-2 -53s-80 9 -118 9c-120 0 -155 -51 -155 -194c0 -155 25 -213 155 -213c38 0 119 9 119 9l3 -53s-90 -12 -133 -12c-162 0 -205 72 -205 269c0 183 57 250 206 250zM125 648l208 95l23 -55l-210 -89z" />
    <glyph glyph-name="ccircumflex" unicode="&#x109;" horiz-adv-x="437" 
d="M260 509c43 0 130 -12 130 -12l-2 -53s-80 9 -118 9c-120 0 -155 -51 -155 -194c0 -155 25 -213 155 -213c38 0 119 9 119 9l3 -53s-90 -12 -133 -12c-162 0 -205 72 -205 269c0 183 57 250 206 250zM85 595l124 142h48l124 -142h-68l-79 90l-81 -90h-68z" />
    <glyph glyph-name="ccaron" unicode="&#x10d;" horiz-adv-x="437" 
d="M260 509c43 0 130 -12 130 -12l-2 -53s-80 9 -118 9c-120 0 -155 -51 -155 -194c0 -155 25 -213 155 -213c38 0 119 9 119 9l3 -53s-90 -12 -133 -12c-162 0 -205 72 -205 269c0 183 57 250 206 250zM214 595l-123 142h67l81 -89l80 89h68l-124 -142h-49z" />
    <glyph glyph-name="cdotaccent" unicode="&#x10b;" horiz-adv-x="437" 
d="M260 509c43 0 130 -12 130 -12l-2 -53s-80 9 -118 9c-120 0 -155 -51 -155 -194c0 -155 25 -213 155 -213c38 0 119 9 119 9l3 -53s-90 -12 -133 -12c-162 0 -205 72 -205 269c0 183 57 250 206 250zM208 623v75h60v-75h-60z" />
    <glyph glyph-name="dcaron" unicode="&#x10f;" horiz-adv-x="723" 
d="M449 700v-700h-60v36s-79 -46 -160 -46c-84 0 -175 30 -175 256c0 174 52 263 209 263c44 0 107 -9 126 -12v203h60zM235 45c74 1 154 43 154 43v356c-20 2 -84 11 -124 11c-119 0 -151 -73 -151 -211c0 -175 63 -198 121 -199zM640 697v-227h-58v227h58z" />
    <glyph glyph-name="dcroat" unicode="&#x111;" horiz-adv-x="540" 
d="M203 622v53h186v25h60v-25h36v-53h-36v-622h-60v36s-79 -46 -160 -46c-84 0 -175 30 -175 256c0 174 52 263 209 263c44 0 107 -9 126 -12v125h-186zM235 45c74 1 154 43 154 43v356c-20 2 -84 11 -124 11c-119 0 -151 -73 -151 -211c0 -175 63 -198 121 -199z" />
    <glyph glyph-name="ecaron" unicode="&#x11b;" horiz-adv-x="507" 
d="M254 45c73 0 183 9 183 9l2 -50s-113 -14 -191 -14c-149 1 -194 91 -194 258c0 193 84 261 206 261c129 0 197 -68 197 -236l-2 -48h-340c0 -118 34 -180 139 -180zM115 275h282c0 132 -43 181 -137 181c-91 0 -145 -51 -145 -181zM228 595l-123 142h67l81 -89l80 89h68
l-124 -142h-49z" />
    <glyph glyph-name="emacron" unicode="&#x113;" horiz-adv-x="507" 
d="M254 45c73 0 183 9 183 9l2 -50s-113 -14 -191 -14c-149 1 -194 91 -194 258c0 193 84 261 206 261c129 0 197 -68 197 -236l-2 -48h-340c0 -118 34 -180 139 -180zM115 275h282c0 132 -43 181 -137 181c-91 0 -145 -51 -145 -181zM120 637v53h282v-53h-282z" />
    <glyph glyph-name="ebreve" unicode="&#x115;" horiz-adv-x="507" 
d="M254 45c73 0 183 9 183 9l2 -50s-113 -14 -191 -14c-149 1 -194 91 -194 258c0 193 84 261 206 261c129 0 197 -68 197 -236l-2 -48h-340c0 -118 34 -180 139 -180zM115 275h282c0 132 -43 181 -137 181c-91 0 -145 -51 -145 -181zM108 729h61c1 -49 34 -83 91 -83
s90 34 91 83h61c-3 -79 -59 -137 -152 -137c-94 0 -150 58 -152 137z" />
    <glyph glyph-name="edotaccent" unicode="&#x117;" horiz-adv-x="507" 
d="M254 45c73 0 183 9 183 9l2 -50s-113 -14 -191 -14c-149 1 -194 91 -194 258c0 193 84 261 206 261c129 0 197 -68 197 -236l-2 -48h-340c0 -118 34 -180 139 -180zM115 275h282c0 132 -43 181 -137 181c-91 0 -145 -51 -145 -181zM223 623v75h60v-75h-60z" />
    <glyph glyph-name="eogonek" unicode="&#x119;" horiz-adv-x="507" 
d="M437 -143l6 -51s-41 -9 -73 -9c-50 0 -87 32 -87 85c0 40 44 90 68 113c-34 -3 -71 -5 -103 -5c-149 1 -194 91 -194 258c0 193 84 261 206 261c129 0 197 -68 197 -236l-2 -48h-340c0 -118 34 -180 139 -180c73 0 183 9 183 9l2 -50s-10 -2 -21 -3
c-2 -1 -73 -73 -73 -106c0 -24 16 -44 41 -44c16 0 51 6 51 6zM115 275h282c0 132 -43 181 -137 181c-91 0 -145 -51 -145 -181z" />
    <glyph glyph-name="gcircumflex" unicode="&#x11d;" horiz-adv-x="512" 
d="M259 -237c-161 0 -209 38 -209 154c0 61 29 87 82 126c-18 11 -26 37 -26 68c0 17 32 78 32 78c-43 18 -81 57 -81 151c0 122 71 170 180 170c52 0 105 -13 105 -13l144 3v-53l-98 2c21 -21 35 -50 35 -109c0 -128 -61 -167 -189 -167c-9 0 -40 2 -51 4
c0 0 -20 -49 -20 -62c0 -43 8 -49 127 -49c136 0 188 -24 188 -145c0 -112 -75 -158 -219 -158zM286 13c-38 0 -113 4 -113 4c-48 -34 -63 -53 -63 -96c0 -78 27 -106 150 -106c109 0 156 30 156 104c0 85 -36 94 -130 94zM234 223c92 0 128 30 128 117
c0 97 -33 120 -125 120c-80 0 -120 -31 -120 -120c0 -79 28 -117 117 -117zM108 595l124 142h48l124 -142h-68l-79 90l-81 -90h-68z" />
    <glyph glyph-name="gbreve" unicode="&#x11f;" horiz-adv-x="512" 
d="M259 -239c-161 0 -209 37 -209 156c0 61 28 87 81 126c-17 11 -25 37 -25 68c0 17 32 78 32 78c-43 18 -81 57 -81 151c0 122 71 170 180 170c52 0 105 -13 105 -13l144 3v-53h-97c21 -21 34 -48 34 -107c0 -128 -61 -167 -189 -167c-9 0 -40 2 -51 4
c0 0 -20 -49 -20 -62c0 -43 8 -49 127 -49c136 0 188 -24 188 -145c0 -113 -75 -160 -219 -160zM286 13c-38 0 -113 4 -113 4c-48 -34 -63 -53 -63 -96c0 -78 27 -106 150 -106c109 0 156 30 156 104c0 85 -36 94 -130 94zM234 225c91 0 128 28 128 115
c0 96 -33 117 -126 117c-79 0 -119 -28 -119 -117c0 -78 27 -115 117 -115zM104 729h61c1 -49 34 -83 91 -83s90 34 91 83h61c-2 -79 -58 -137 -152 -137s-149 58 -152 137z" />
    <glyph glyph-name="gdotaccent" unicode="&#x121;" horiz-adv-x="512" 
d="M259 -239c-161 0 -209 37 -209 156c0 61 28 87 81 126c-17 11 -25 37 -25 68c0 17 32 78 32 78c-43 18 -81 57 -81 151c0 122 71 170 180 170c52 0 105 -13 105 -13l144 3v-53h-97c21 -21 34 -48 34 -107c0 -128 -61 -167 -189 -167c-9 0 -40 2 -51 4
c0 0 -20 -49 -20 -62c0 -43 8 -49 127 -49c136 0 188 -24 188 -145c0 -113 -75 -160 -219 -160zM286 13c-38 0 -113 4 -113 4c-48 -34 -63 -53 -63 -96c0 -78 27 -106 150 -106c109 0 156 30 156 104c0 85 -36 94 -130 94zM234 225c91 0 128 28 128 115
c0 96 -33 117 -126 117c-79 0 -119 -28 -119 -117c0 -78 27 -115 117 -115zM226 623v75h60v-75h-60z" />
    <glyph glyph-name="gcommaaccent" unicode="&#x123;" horiz-adv-x="512" 
d="M259 -237c-161 0 -209 38 -209 154c0 61 29 87 82 126c-18 11 -26 37 -26 68c0 17 32 78 32 78c-43 18 -81 57 -81 151c0 122 71 170 180 170c52 0 105 -13 105 -13l144 3v-53l-98 2c21 -21 35 -50 35 -109c0 -128 -61 -167 -189 -167c-9 0 -40 2 -51 4
c0 0 -20 -49 -20 -62c0 -43 8 -49 127 -49c136 0 188 -24 188 -145c0 -112 -75 -158 -219 -158zM286 13c-38 0 -113 4 -113 4c-48 -34 -63 -53 -63 -96c0 -78 27 -106 150 -106c109 0 156 30 156 104c0 85 -36 94 -130 94zM234 223c92 0 128 30 128 117
c0 97 -33 120 -125 120c-80 0 -120 -31 -120 -120c0 -79 28 -117 117 -117zM295 791l-40 -201h-60l48 201h52z" />
    <glyph glyph-name="hcircumflex" unicode="&#x125;" horiz-adv-x="565" 
d="M152 0h-60v722h60v-248s85 35 162 35c137 0 167 -63 167 -249v-260h-60v259c0 146 -16 195 -114 195c-75 0 -155 -33 -155 -33v-421zM134 780l124 142h48l124 -142h-68l-79 90l-81 -90h-68z" />
    <glyph glyph-name="hbar" unicode="&#x127;" horiz-adv-x="565" 
d="M27 592v53h65v77h60v-77h157v-53h-157v-118s85 35 162 35c137 0 167 -63 167 -249v-260h-60v259c0 146 -16 195 -114 195c-75 0 -155 -33 -155 -33v-421h-60v592h-65z" />
    <glyph glyph-name="itilde" unicode="&#x129;" horiz-adv-x="263" 
d="M101 0v500h60v-500h-60zM274 714l14 -47s-45 -48 -82 -48c-43 0 -115 51 -147 51c-23 0 -73 -44 -73 -44l-14 47s50 51 88 51c45 0 116 -50 147 -50c20 0 67 40 67 40z" />
    <glyph glyph-name="imacron" unicode="&#x12b;" horiz-adv-x="263" 
d="M101 0v500h60v-500h-60zM-10 637v53h282v-53h-282z" />
    <glyph glyph-name="ibreve" unicode="&#x12d;" horiz-adv-x="263" 
d="M101 0v500h60v-500h-60zM-20 729h61c1 -49 34 -83 91 -83s90 34 91 83h61c-3 -79 -59 -137 -152 -137c-94 0 -150 58 -152 137z" />
    <glyph glyph-name="iogonek" unicode="&#x12f;" horiz-adv-x="228" 
d="M-91 0v500h60v-500h-60zM-91 625v75h60v-75h-60zM162 -144l6 -51s-41 -9 -73 -9c-50 0 -87 32 -87 85c0 54 82 126 82 126l54 -6s-74 -74 -74 -107c0 -24 16 -44 41 -44c16 0 51 6 51 6z" />
    <glyph glyph-name="jcircumflex" unicode="&#x135;" horiz-adv-x="242" 
d="M98 6v494h60v-495c0 -119 -32 -164 -164 -231l-25 51c106 60 129 88 129 181zM-22 595l124 142h48l124 -142h-68l-79 90l-81 -90h-68z" />
    <glyph glyph-name="kcommaaccent" unicode="&#x137;" horiz-adv-x="492" 
d="M152 0h-60v722h60v-426l83 3l162 201h68l-176 -229l178 -271h-69l-162 240l-84 -3v-237zM189 -278l40 200h60l-49 -200h-51z" />
    <glyph glyph-name="lacute" unicode="&#x13a;" horiz-adv-x="236" 
d="M88 0v722h60v-722h-60zM3 850l208 95l23 -55l-210 -89z" />
    <glyph glyph-name="lcaron" unicode="&#x13e;" horiz-adv-x="418" 
d="M88 0v722h60v-722h-60zM336 697v-227h-58v227h58z" />
    <glyph glyph-name="lcommaaccent" unicode="&#x13c;" horiz-adv-x="236" 
d="M88 0v722h60v-722h-60zM46 -278l40 200h60l-49 -200h-51z" />
    <glyph glyph-name="nacute" unicode="&#x144;" horiz-adv-x="570" 
d="M152 0h-60v500h60v-37s84 46 162 46c137 0 167 -63 167 -249v-260h-59v260c0 146 -16 195 -116 195c-78 0 -154 -42 -154 -42v-413zM169 648l208 95l23 -55l-210 -89z" />
    <glyph glyph-name="ncaron" unicode="&#x148;" horiz-adv-x="570" 
d="M152 0h-60v500h60v-37s84 46 162 46c137 0 167 -63 167 -249v-260h-59v260c0 146 -16 195 -116 195c-78 0 -154 -42 -154 -42v-413zM260 595l-123 142h67l81 -89l80 89h68l-124 -142h-49z" />
    <glyph glyph-name="ncommaaccent" unicode="&#x146;" horiz-adv-x="570" 
d="M152 0h-60v500h60v-37s84 46 162 46c137 0 167 -63 167 -249v-260h-59v260c0 146 -16 195 -116 195c-78 0 -154 -42 -154 -42v-413zM228 -278l40 200h60l-49 -200h-51z" />
    <glyph glyph-name="omacron" unicode="&#x14d;" horiz-adv-x="527" 
d="M265 509c145 0 208 -77 208 -252c0 -179 -41 -267 -208 -267c-168 0 -211 79 -211 268c0 177 56 251 211 251zM265 44c129 0 146 70 146 213s-44 198 -146 198c-115 0 -150 -48 -150 -197c0 -152 21 -214 150 -214zM122 637v53h282v-53h-282z" />
    <glyph glyph-name="obreve" unicode="&#x14f;" horiz-adv-x="527" 
d="M265 509c145 0 208 -77 208 -252c0 -179 -41 -267 -208 -267c-168 0 -211 79 -211 268c0 177 56 251 211 251zM265 44c129 0 146 70 146 213s-44 198 -146 198c-115 0 -150 -48 -150 -197c0 -152 21 -214 150 -214zM111 729h61c2 -49 35 -83 91 -83c58 0 90 34 91 83h61
c-2 -79 -58 -137 -152 -137c-93 0 -149 58 -152 137z" />
    <glyph glyph-name="ohungarumlaut" unicode="&#x151;" horiz-adv-x="527" 
d="M265 509c145 0 208 -77 208 -252c0 -179 -41 -267 -208 -267c-168 0 -211 79 -211 268c0 177 56 251 211 251zM265 44c129 0 146 70 146 213s-44 198 -146 198c-115 0 -150 -48 -150 -197c0 -152 21 -214 150 -214zM292 623l152 126l40 -37l-153 -125zM102 623l152 126
l41 -37l-154 -125z" />
    <glyph glyph-name="racute" unicode="&#x155;" horiz-adv-x="355" 
d="M92 0v500h60v-71s81 62 183 81v-61c-95 -19 -183 -76 -183 -76v-373h-60zM77 648l208 95l23 -55l-210 -89z" />
    <glyph glyph-name="rcommaaccent" unicode="&#x157;" horiz-adv-x="355" 
d="M92 0v500h60v-71s81 62 183 81v-61c-95 -19 -183 -76 -183 -76v-373h-60zM50 -278l40 200h60l-49 -200h-51z" />
    <glyph glyph-name="rcaron" unicode="&#x159;" horiz-adv-x="355" 
d="M92 0v500h60v-71s81 62 183 81v-61c-95 -19 -183 -76 -183 -76v-373h-60zM168 595l-123 142h67l81 -89l80 89h68l-124 -142h-49z" />
    <glyph glyph-name="sacute" unicode="&#x15b;" horiz-adv-x="486" 
d="M411 492l-2 -53s-108 16 -173 16c-63 0 -118 -17 -118 -85c0 -52 25 -68 130 -84c131 -21 180 -45 180 -141c0 -117 -73 -155 -193 -155c-61 0 -172 18 -172 18l4 53s112 -17 163 -17c87 0 137 20 137 98c0 60 -30 72 -137 89c-120 19 -173 41 -173 137
c0 109 89 141 176 141c76 0 178 -17 178 -17zM128 648l208 95l23 -55l-210 -89z" />
    <glyph glyph-name="scircumflex" unicode="&#x15d;" horiz-adv-x="486" 
d="M411 492l-2 -53s-108 16 -173 16c-63 0 -118 -17 -118 -85c0 -52 25 -68 130 -84c131 -21 180 -45 180 -141c0 -117 -73 -155 -193 -155c-61 0 -172 18 -172 18l4 53s112 -17 163 -17c87 0 137 20 137 98c0 60 -30 72 -137 89c-120 19 -173 41 -173 137
c0 109 89 141 176 141c76 0 178 -17 178 -17zM95 595l124 142h48l124 -142h-68l-79 90l-81 -90h-68z" />
    <glyph glyph-name="scedilla" unicode="&#x15f;" horiz-adv-x="486" 
d="M361 -127c0 -59 -36 -84 -89 -84c-44 0 -84 6 -84 6l2 40s41 -3 71 -3c28 0 45 10 45 41c0 27 -17 37 -45 37h-47v81c-63 3 -151 17 -151 17l4 53s112 -17 163 -17c87 0 137 20 137 98c0 60 -30 72 -137 89c-120 19 -173 41 -173 137c0 109 89 141 176 141
c76 0 178 -17 178 -17l-2 -53s-108 16 -173 16c-63 0 -118 -17 -118 -85c0 -52 25 -68 130 -84c131 -21 180 -45 180 -141c0 -112 -66 -151 -176 -155v-42c73 0 109 -14 109 -75z" />
    <glyph glyph-name="scommaaccent" unicode="&#x219;" horiz-adv-x="486" 
d="M411 492l-2 -53s-108 16 -173 16c-63 0 -118 -17 -118 -85c0 -52 25 -68 130 -84c131 -21 180 -45 180 -141c0 -117 -73 -155 -193 -155c-61 0 -172 18 -172 18l4 53s112 -17 163 -17c87 0 137 20 137 98c0 60 -30 72 -137 89c-120 19 -173 41 -173 137
c0 109 89 141 176 141c76 0 178 -17 178 -17zM191 -278l40 200h60l-49 -200h-51z" />
    <glyph glyph-name="tcaron" unicode="&#x165;" horiz-adv-x="533" 
d="M331 445h-167v-243c0 -125 8 -157 79 -157c28 0 93 7 93 7l3 -53s-66 -10 -101 -10c-98 0 -134 37 -134 181v275h-74v55h74v157h60v-157h167v-55zM466 697v-227h-58v227h58z" />
    <glyph glyph-name="tcommaaccent" unicode="&#x163;" horiz-adv-x="368" 
d="M331 445h-167v-243c0 -125 8 -157 79 -157c28 0 93 7 93 7l3 -53s-66 -10 -101 -10c-98 0 -134 37 -134 181v275h-74v55h74v157h60v-157h167v-55zM132 -278l40 200h60l-49 -200h-51z" />
    <glyph glyph-name="tbar" unicode="&#x167;" horiz-adv-x="368" 
d="M331 445h-167v-155h-60v155h-74v55h74v157h60v-157h167v-55zM238 -11c-98 0 -134 37 -134 181v67h60v-35c0 -125 8 -157 79 -157c28 0 93 7 93 7l3 -53s-66 -10 -101 -10zM164 290h149v-53h-149v53zM39 237v53h65v-53h-65z" />
    <glyph glyph-name="utilde" unicode="&#x169;" horiz-adv-x="558" 
d="M406 500h59v-500h-59v35s-78 -45 -154 -45c-139 0 -167 61 -167 249v261h59v-259c0 -150 15 -197 115 -197c75 0 147 42 147 42v414zM421 714l14 -47s-44 -48 -81 -48c-43 0 -115 51 -148 51c-22 0 -72 -44 -72 -44l-15 47s50 51 88 51c46 0 116 -50 147 -50
c20 0 67 40 67 40z" />
    <glyph glyph-name="umacron" unicode="&#x16b;" horiz-adv-x="558" 
d="M406 500h59v-500h-59v35s-78 -45 -154 -45c-139 0 -167 61 -167 249v261h59v-259c0 -150 15 -197 115 -197c75 0 147 42 147 42v414zM138 637v53h282v-53h-282z" />
    <glyph glyph-name="ubreve" unicode="&#x16d;" horiz-adv-x="558" 
d="M406 500h59v-500h-59v35s-78 -45 -154 -45c-139 0 -167 61 -167 249v261h59v-259c0 -150 15 -197 115 -197c75 0 147 42 147 42v414zM126 729h61c2 -49 35 -83 91 -83c58 0 90 34 91 83h61c-2 -79 -58 -137 -152 -137c-93 0 -149 58 -152 137z" />
    <glyph glyph-name="uring" unicode="&#x16f;" horiz-adv-x="558" 
d="M406 500h59v-500h-59v35s-78 -45 -154 -45c-139 0 -167 61 -167 249v261h59v-259c0 -150 15 -197 115 -197c75 0 147 42 147 42v414zM184 647c0 56 44 100 101 100c56 0 100 -44 100 -100c0 -57 -44 -101 -100 -101c-57 0 -101 44 -101 101zM231 647c0 -31 24 -56 54 -56
s54 25 54 56c0 30 -24 55 -54 55s-54 -25 -54 -55z" />
    <glyph glyph-name="uhungarumlaut" unicode="&#x171;" horiz-adv-x="558" 
d="M406 500h59v-500h-59v35s-78 -45 -154 -45c-139 0 -167 61 -167 249v261h59v-259c0 -150 15 -197 115 -197c75 0 147 42 147 42v414zM316 623l152 126l41 -37l-154 -125zM127 623l151 126l41 -37l-154 -125z" />
    <glyph glyph-name="uogonek" unicode="&#x173;" horiz-adv-x="558" 
d="M406 500h59v-500h-1l1 1l-54 6l-5 -5v33s-78 -45 -154 -45c-139 0 -167 61 -167 249v261h59v-259c0 -150 15 -197 115 -197c75 0 147 42 147 42v414zM483 -144l6 -51s-41 -9 -73 -9c-50 0 -87 32 -87 85c0 47 61 107 77 121v-2h58c-4 -3 -73 -74 -73 -106
c0 -24 16 -44 41 -44c16 0 51 6 51 6z" />
    <glyph glyph-name="wgrave" unicode="&#x1e81;" horiz-adv-x="758" 
d="M31 500h61l111 -446h14l130 436h64l129 -436h15l111 446h61l-126 -500h-105l-118 412l-118 -412h-104zM286 743l208 -95l-20 -47l-210 89z" />
    <glyph glyph-name="wacute" unicode="&#x1e83;" horiz-adv-x="758" 
d="M31 500h61l111 -446h14l130 436h64l129 -436h15l111 446h61l-126 -500h-105l-118 412l-118 -412h-104zM263 648l208 95l23 -55l-210 -89z" />
    <glyph glyph-name="wcircumflex" unicode="&#x175;" horiz-adv-x="758" 
d="M31 500h61l111 -446h14l130 436h64l129 -436h15l111 446h61l-126 -500h-105l-118 412l-118 -412h-104zM231 595l124 142h48l124 -142h-68l-79 90l-81 -90h-68z" />
    <glyph glyph-name="wdieresis" unicode="&#x1e85;" horiz-adv-x="758" 
d="M31 500h61l111 -446h14l130 436h64l129 -436h15l111 446h61l-126 -500h-105l-118 412l-118 -412h-104zM252 630v79h58v-79h-58zM448 630v79h58v-79h-58z" />
    <glyph glyph-name="ygrave" unicode="&#x1ef3;" horiz-adv-x="481" 
d="M28 500h61l133 -443h36l134 443h61l-216 -725h-60l66 225h-68zM147 743l208 -95l-20 -47l-210 89z" />
    <glyph glyph-name="ycircumflex" unicode="&#x177;" horiz-adv-x="481" 
d="M28 500h61l133 -443h36l134 443h61l-216 -725h-60l66 225h-68zM92 595l124 142h48l124 -142h-68l-79 90l-81 -90h-68z" />
    <glyph glyph-name="zacute" unicode="&#x17a;" horiz-adv-x="480" 
d="M54 446v54h371v-54l-298 -392h298v-54h-371v54l299 392h-299zM122 648l208 95l23 -55l-210 -89z" />
    <glyph glyph-name="zdotaccent" unicode="&#x17c;" horiz-adv-x="480" 
d="M54 446v54h371v-54l-298 -392h298v-54h-371v54l299 392h-299zM210 623v75h60v-75h-60z" />
    <glyph glyph-name="eng" unicode="&#x14b;" horiz-adv-x="570" 
d="M152 0h-60v500h60v-36s88 45 164 45c135 0 166 -73 166 -249v-264c0 -121 -30 -161 -156 -231l-26 51c101 59 122 88 122 179v264c0 136 -16 196 -113 196c-75 0 -157 -42 -157 -42v-413z" />
    <glyph glyph-name="infinity" unicode="&#x221e;" horiz-adv-x="531" 
d="M142 121c-83 0 -122 63 -122 171c0 107 39 171 120 171c66 0 97 -39 125 -107c28 68 60 107 126 107c81 0 120 -64 120 -171c0 -108 -39 -171 -122 -171c-64 0 -96 38 -123 105c-31 -81 -57 -105 -124 -105zM289 292c25 -55 38 -114 99 -114c45 0 64 40 64 114
s-18 113 -64 113c-61 0 -74 -57 -99 -113zM242 292c-25 56 -39 113 -99 113c-46 0 -64 -39 -64 -113c0 -67 19 -114 64 -114c60 0 74 59 99 114z" />
    <glyph glyph-name="approxequal" unicode="&#x2248;" 
d="M457 433l7 -59s-52 -52 -104 -52c-59 0 -142 52 -188 52c-40 0 -99 -50 -99 -50l-8 58s56 53 109 53c60 0 142 -51 187 -51c38 0 96 49 96 49zM456 250l7 -59s-52 -52 -104 -52c-59 0 -142 52 -188 52c-40 0 -99 -50 -99 -50l-8 58s56 53 109 53c60 0 142 -51 187 -51
c38 0 96 49 96 49z" />
    <glyph glyph-name="uni1EF9" unicode="&#x1ef9;" horiz-adv-x="481" 
d="M28 500h61l133 -443h36l134 443h61l-216 -725h-60l66 225h-68zM378 714l14 -47s-45 -48 -81 -48c-43 0 -116 51 -148 51c-23 0 -72 -44 -72 -44l-15 47s50 51 88 51c45 0 116 -50 147 -50c20 0 67 40 67 40z" />
    <glyph glyph-name="uni1EB0" unicode="&#x1eb0;" horiz-adv-x="604" 
d="M31 0l200 697h145l197 -696h-62l-58 189h-304l-56 -190h-62zM276 640l-112 -391h275l-111 391h-52zM150 892h61c1 -47 41 -75 89 -75c49 0 88 28 89 75h61c-2 -76 -64 -127 -150 -127s-147 51 -150 127zM152 1081l208 -95l-20 -47l-210 89z" />
    <glyph glyph-name="uni1EF8" unicode="&#x1ef8;" horiz-adv-x="548" 
d="M306 299v-299h-62v299l-223 398h69l185 -329l182 329h69zM412 912l14 -47s-45 -48 -81 -48c-43 0 -116 51 -148 51c-23 0 -72 -44 -72 -44l-15 47s50 51 88 51c45 0 116 -50 147 -50c20 0 67 40 67 40z" />
    <glyph glyph-name="uni1EC5" unicode="&#x1ec5;" horiz-adv-x="507" 
d="M254 45c73 0 183 9 183 9l2 -50s-113 -14 -191 -14c-149 1 -194 91 -194 258c0 193 84 261 206 261c129 0 197 -68 197 -236l-2 -48h-340c0 -118 34 -180 139 -180zM115 275h282c0 132 -43 181 -137 181c-91 0 -145 -51 -145 -181zM108 565l124 142h48l124 -142h-68
l-79 90l-81 -90h-68zM395 829l14 -47s-45 -48 -81 -48c-43 0 -116 51 -148 51c-23 0 -72 -44 -72 -44l-15 47s50 51 88 51c45 0 116 -50 147 -50c20 0 67 40 67 40z" />
    <glyph glyph-name="uni1ED7" unicode="&#x1ed7;" horiz-adv-x="534" 
d="M265 509c145 0 208 -77 208 -252c0 -179 -41 -267 -208 -267c-168 0 -211 79 -211 268c0 177 56 251 211 251zM265 44c129 0 146 70 146 213s-44 198 -146 198c-115 0 -150 -48 -150 -197c0 -152 21 -214 150 -214zM108 565l124 142h48l124 -142h-68l-79 90l-81 -90h-68z
M387 829l14 -47s-45 -48 -81 -48c-43 0 -116 51 -148 51c-23 0 -72 -44 -72 -44l-15 47s50 51 88 51c45 0 116 -50 147 -50c20 0 67 40 67 40z" />
    <glyph glyph-name="uni1EAB" unicode="&#x1eab;" horiz-adv-x="534" 
d="M427 349v-266c3 -29 32 -40 65 -44l-3 -48c-49 0 -86 10 -113 40c0 0 -94 -41 -188 -41c-88 0 -137 51 -137 151c0 92 46 136 147 146l170 17v45c0 75 -34 105 -98 105c-72 0 -189 -14 -189 -14l-3 49s115 20 196 20c104 0 153 -52 153 -160zM368 257l-163 -17
c-67 -6 -92 -38 -92 -98c0 -64 28 -100 83 -100c79 0 172 34 172 34v181zM95 565l124 142h48l124 -142h-68l-79 90l-81 -90h-68zM377 829l14 -47s-45 -48 -81 -48c-43 0 -116 51 -148 51c-23 0 -72 -44 -72 -44l-15 47s50 51 88 51c45 0 116 -50 147 -50c20 0 67 40 67 40z
" />
    <glyph glyph-name="zero.numr" horiz-adv-x="265" 
d="M134 699c74 0 117 -41 117 -165c0 -126 -46 -166 -116 -166c-71 0 -117 40 -117 167c0 124 44 164 116 164zM134 650c-42 0 -61 -30 -61 -116c0 -90 22 -116 62 -116c39 0 61 26 61 117c0 83 -19 115 -62 115z" />
    <glyph glyph-name="one.numr" horiz-adv-x="265" 
d="M30 621l101 69h51v-312h-54v253l-73 -50z" />
    <glyph glyph-name="two.numr" horiz-adv-x="265" 
d="M228 378h-204v48l92 93c30 30 52 54 52 88c0 30 -22 41 -52 41c-31 0 -86 -10 -86 -10l-3 49s57 12 99 12c66 0 97 -28 97 -88c0 -47 -23 -78 -63 -116l-66 -68h134v-49z" />
    <glyph glyph-name="three.numr" horiz-adv-x="265" 
d="M31 689c0 0 56 10 100 10c69 0 102 -25 102 -82c0 -53 -38 -73 -43 -76c32 -10 52 -23 52 -77c0 -66 -39 -96 -105 -96c-49 0 -110 11 -110 11l3 47s56 -8 102 -8c38 0 54 19 54 47c0 38 -21 49 -51 49h-65v47h64c20 0 44 22 44 51c0 25 -14 38 -51 38
c-43 0 -93 -8 -93 -8z" />
    <glyph glyph-name="four.numr" horiz-adv-x="265" 
d="M158 378v51h-142v46l76 215h58l-78 -211h86l4 87h50v-87h30v-50h-30v-51h-54z" />
    <glyph glyph-name="five.numr" horiz-adv-x="265" 
d="M47 690h182v-49h-136l-6 -83s23 18 60 18c53 0 95 -24 95 -99c0 -72 -44 -108 -105 -108c-47 0 -104 13 -104 13l4 47s54 -11 95 -11c31 0 53 19 53 58c0 40 -21 52 -46 52c-32 0 -59 -18 -59 -18l-43 5z" />
    <glyph glyph-name="six.numr" horiz-adv-x="265" 
d="M231 690l-3 -46s-46 7 -82 7c-45 0 -67 -24 -67 -85c0 -1 35 16 64 16c70 0 102 -37 102 -102c0 -69 -42 -112 -108 -112c-76 0 -115 52 -115 164c0 120 41 167 123 167c37 0 86 -9 86 -9zM137 535c-30 0 -59 -18 -59 -19c1 -62 16 -99 58 -99c40 0 54 27 54 62
c0 41 -15 56 -53 56z" />
    <glyph glyph-name="seven.numr" horiz-adv-x="265" 
d="M28 638v52h202v-71l-108 -250l-57 11l105 236v22h-142z" />
    <glyph glyph-name="eight.numr" horiz-adv-x="265" 
d="M132 699c73 0 112 -26 112 -84c0 -43 -16 -64 -48 -74c30 -9 53 -27 53 -76c0 -75 -47 -97 -117 -97c-68 0 -117 23 -117 93c0 51 25 69 54 81c-28 10 -49 29 -49 74c0 57 38 83 112 83zM132 415c40 0 61 14 61 50c0 31 -14 43 -46 52h-30c-30 -9 -46 -21 -46 -55
c0 -33 23 -47 61 -47zM132 653c-41 0 -57 -14 -57 -41c0 -28 12 -39 42 -49h30c32 10 42 21 42 48c0 28 -16 42 -57 42z" />
    <glyph glyph-name="nine.numr" horiz-adv-x="265" 
d="M33 379l3 45s44 -6 81 -6c50 0 71 28 72 83c0 0 -37 -14 -68 -14c-64 0 -102 40 -102 105c0 69 47 107 110 107c78 0 115 -53 115 -167c0 -121 -39 -164 -123 -164c-40 0 -88 11 -88 11zM127 533c26 0 63 17 63 17c-2 64 -17 101 -60 101c-34 0 -55 -20 -55 -59
c0 -34 18 -59 52 -59z" />
    <glyph glyph-name="Dcroat" unicode="&#x110;" horiz-adv-x="646" 
d="M23 320v58h72v319h251c192 0 248 -149 248 -338c0 -190 -55 -359 -248 -359h-251v320h-72zM530 359c0 148 -38 280 -184 280h-190v-261h165v-58h-165v-262h190c146 0 184 153 184 301z" />
    <glyph glyph-name="uni0327" unicode="&#x327;" horiz-adv-x="504" 
d="M392 -127c0 -59 -36 -84 -89 -84c-44 0 -84 6 -84 6l2 40s41 -3 71 -3c28 0 45 10 45 41c0 27 -17 37 -45 37h-47v91h38v-53c73 0 109 -14 109 -75z" />
    <glyph glyph-name="quotedblbase" unicode="&#x201e;" horiz-adv-x="341" 
d="M43 -96l42 211h63l-50 -211h-55zM195 -96l42 211h63l-50 -211h-55z" />
    <glyph glyph-name="guilsinglleft" unicode="&#x2039;" horiz-adv-x="288" 
d="M221 350l-129 -99l129 -109v-64l-181 146v51l181 138v-63z" />
    <glyph glyph-name="guilsinglright" unicode="&#x203a;" horiz-adv-x="288" 
d="M196 254l-129 98v63l181 -138v-51l-181 -146v65z" />
    <glyph glyph-name="guillemotleft" unicode="&#xab;" horiz-adv-x="565" 
d="M271 350l-129 -99l129 -109v-64l-181 146v51l181 138v-63zM497 350l-129 -99l129 -109v-64l-181 146v51l181 138v-63z" />
    <glyph glyph-name="guillemotright" unicode="&#xbb;" horiz-adv-x="565" 
d="M422 251l-128 99v63l181 -138v-51l-181 -146v64zM196 251l-128 99v63l181 -138v-51l-181 -146v64z" />
    <glyph glyph-name="slash" unicode="/" 
d="M96 14l278 692l57 -21l-279 -692z" />
  </font>
</defs>
</svg>
